\m/ 80's metal \m/

Информационно-аналитический форум "80 см пыли" (In Search We Trust) "У нас никто никуда не спешит"
Me For You - http://me-4u.com
It is currently 24 Jan 2019

All times are UTC + 3 hours

Spoiler
Chat - temporary registration for foreign users (please leave your application here)





Forum rules


Correctly issued inquiry should be as muсh as possible clear and look like as follows: We write a group name In the topic name, style and its location: an example: [reqs] Slayer - (USA, California) - Thrash Metal – a prefix presence in the name of the theme is obligatory.
It is necessary to list the following things: which album and track-list we are searching for, what quality will suit (probably you are looking for an original record or the Japanese, American/Russian reedition?), we insert the picture (to 300х300 px), we copy track-list (the edition you are searching for!). It will be useful if you point out some information about the group and quality of a required product (a size, bitrate). Before the inquiry have a forum search.php

Example: viewtopic.php?f=205&t=10187

Правильно оформленный запрос должен быть максимально понятен и выглядеть так:
В названии топика пишем имя группы, стиль и её месторасположение (пример: [reqs] Slayer - (USA, California) - Thrash Metal).
Внутри поста необходимо перечислить, какие именно релизы ищем, в каком формате устроит, обязательно указываем трэк-листы (возможно вы хотите оригинальную запись или японское, американское/российское переиздание?), вставляем минимальные картинки (до 300х300 px). Также не помешают несколько слов о самой группе.
Перед запросом, чтобы не попасть в неловкое положение, юзаем поиск по форуму search.php

Если вы мало что поняли из прочтённого, смотрим пример грамотного запроса: viewtopic.php?f=205&t=10187
Сообщения размещаем только в раздел "Лося не видели?".
Самих лосей постим и красиво оформляем в "Лосиной бухте" - viewforum.php?f=31

Важные ссылки и дополнения к правилам раздела:
Убедительная просьба. Создавайте запросы правильно.
viewtopic.php?f=113&t=1802
Прежде чем запрашивать альбом, спросите его у Google
viewtopic.php?f=113&t=2696
Что вас может ожидать в случае несоблюдения правил:
viewtopic.php?t=3792


Приятного общения на нашем форуме и удачи в охоте на "металлических животных" :dance:

Image

Заказывать альбомы 2017/2018 г запрещено!
Don't Request Releases from 2017/2018 Please!!!



Post new topic Reply to topic  [ 23 posts ]  Go to page Previous  1, 2
Author Message
 
PostPosted: 27 Apr 2012 
Трешер
User avatar
Joined: 25 Feb 2011
Posts: 1062
Lоcаtion: Харьков
Age: 42
Name: Aleksandr
> Осталось найти: | Still looking:
Chemical Breath - 1994 - Values


Ищу в лосе эти два альбома

Chemical Breath - 1992 - Fatal Exposure

Image

01. 05:59 The Advantage of Disbelieve
02. 04:04 Arachnid
03. 04:12 Deny Fear
04. 03:59 Deny Fear
05. 03:10 Erased from Existence
06. 03:50 Several Hours to Sudgement
07. 04:34 Lost Tribes
08. 03:47 Hideous Perspectives
09. 05:13 Mutilation


Chemical Breath - 1994 - Values

Image

01. 03:37 I Persist in My Opinion
02. 05:01 Awaiting the Miracles
03. 04:03 A Core Undesired
04. 04:25 Inexplicable Being
05. 04:43 Message to the Mystic
06. 04:18 Reduce Your Value
07. 03:03 The Open Field
08. 03:08 Admiring the Opponent


Top
 Profile E-mail  
 
 
PostPosted: 21 Aug 2013 
Хиппей (support team)
User avatar
Joined: 30 Jul 2007
Posts: 109773
Lоcаtion: Киев (Kyiv, UA)
Age: 45
Name: Andrey
Chemical Breath - 1992 - Fatal Exposure [flac]

Image

mirror: F-Bit l eDisk l Narod

Ага, и здесь точно как и на последующем альбоме - помесь техно-трэша, дэза небрутального и хардкора приличного такого.
Не так чтоб очь понравилось, но слушается весьма достойно.

5/10

log
Exact Audio Copy V0.99 prebeta 5 from 4. May 2009

EAC extraction logfile from 6. October 2012, 8:29

Chemical Breath / Fatal Exposure

Used drive : Optiarc DVD RW AD-5260S Adapter: 0 ID: 0

Read mode : Secure
Utilize accurate stream : Yes
Defeat audio cache : Yes
Make use of C2 pointers : No

Read offset correction : 48
Overread into Lead-In and Lead-Out : No
Fill up missing offset samples with silence : Yes
Delete leading and trailing silent blocks : No
Null samples used in CRC calculations : Yes
Used interface : Installed external ASPI interface

Used output format : User Defined Encoder
Selected bitrate : 32 kBit/s
Quality : High
Add ID3 tag : No
Command line compressor : C:\Program Files\flac.exe
Additional command line options : -6 -V -T "artist=%a" -T "title=%t" -T "album=%g" -T "date=%y" -T "tracknumber=%n" -T "genre=%m" -T "comment=EAC v0.99pb5 FLAC 1.2.1 q6" %s


TOC of the extracted CD

Track | Start | Length | Start sector | End sector
---------------------------------------------------------
1 | 0:00.00 | 5:57.42 | 0 | 26816
2 | 5:57.42 | 4:02.08 | 26817 | 44974
3 | 9:59.50 | 4:10.50 | 44975 | 63774
4 | 14:10.25 | 3:57.62 | 63775 | 81611
5 | 18:08.12 | 3:08.13 | 81612 | 95724
6 | 21:16.25 | 3:48.62 | 95725 | 112886
7 | 25:05.12 | 4:32.63 | 112887 | 133349
8 | 29:38.00 | 3:45.50 | 133350 | 150274
9 | 33:23.50 | 5:11.25 | 150275 | 173624


Range status and errors

Selected range

Filename F:\RIPS_EAC\Chemical Breath - Fatal Exposure.wav

Peak level 96.2 %
Range quality 100.0 %
Test CRC A01A2D23
Copy CRC A01A2D23
Copy OK

No errors occurred


AccurateRip summary

Track 1 accurately ripped (confidence 2) [9927C326]
Track 2 accurately ripped (confidence 2) [B3AA014C]
Track 3 not present in database
Track 4 accurately ripped (confidence 2) [98C4C8E2]
Track 5 accurately ripped (confidence 2) [16EC3851]
Track 6 accurately ripped (confidence 2) [988801E8]
Track 7 accurately ripped (confidence 2) [3025CFA3]
Track 8 accurately ripped (confidence 2) [B4F0EE0E]
Track 9 accurately ripped (confidence 2) [93F69A61]

8 track(s) accurately ripped
1 track(s) not present in the AccurateRip database

Some tracks could not be verified as accurate

End of status report

cue
REM GENRE "Death Metal"
REM DATE 1992
REM DISCID 69090B09
REM COMMENT "ExactAudioCopy v0.99pb5"
PERFORMER "Chemical Breath"
TITLE "Fatal Exposure"
FILE "Chemical Breath - Fatal Exposure.flac" WAVE
TRACK 01 AUDIO
TITLE "The Advantage Of Disbelieve"
PERFORMER "Chemical Breath"
INDEX 01 00:00:00
TRACK 02 AUDIO
TITLE "Arachnid"
PERFORMER "Chemical Breath"
INDEX 00 05:54:62
INDEX 01 05:57:42
TRACK 03 AUDIO
TITLE "Chamber Of Lost"
PERFORMER "Chemical Breath"
INDEX 00 09:57:00
INDEX 01 09:59:50
TRACK 04 AUDIO
TITLE "Deny Fear"
PERFORMER "Chemical Breath"
INDEX 01 14:10:25
TRACK 05 AUDIO
TITLE "Erased From Existence"
PERFORMER "Chemical Breath"
INDEX 00 18:05:37
INDEX 01 18:08:12
TRACK 06 AUDIO
TITLE "Several Hours To Judgement"
PERFORMER "Chemical Breath"
INDEX 00 21:13:62
INDEX 01 21:16:25
TRACK 07 AUDIO
TITLE "Lost Tribes"
PERFORMER "Chemical Breath"
INDEX 00 25:02:37
INDEX 01 25:05:12
TRACK 08 AUDIO
TITLE "Hideous Perspectives"
PERFORMER "Chemical Breath"
INDEX 00 29:35:25
INDEX 01 29:38:00
TRACK 09 AUDIO
TITLE "Mutilation"
PERFORMER "Chemical Breath"
INDEX 00 33:20:62
INDEX 01 33:23:50

_________________


Top
 Profile E-mail  
 
 
PostPosted: 29 Jan 2017 
Трешер
User avatar
Joined: 25 Feb 2011
Posts: 1062
Lоcаtion: Харьков
Age: 42
Name: Aleksandr
Куда наши пираты смотрят :shok: https://www.discogs.com/sell/release/2721222?ev=rb


вроде 320 https://yadi.sk/d/0EZxKAjd3BZF8Y


Top
 Profile E-mail  
 
 
PostPosted: 29 Jan 2017 
Работнечег
User avatar
Joined: 28 Aug 2007
Posts: 5657
Lоcаtion: г. Москва
Age: 29
Name: Дима
Спасибо! :thanx:


Top
 Profile E-mail  
 
Display posts from previous:  Sort by  
Post new topic Reply to topic  [ 23 posts ]  Go to page Previous  1, 2

All times are UTC + 3 hours


Who is online

Users browsing this forum: No registered users and 5 guests


You cannot post new topics in this forum
You cannot reply to topics in this forum
You cannot edit your posts in this forum
You cannot delete your posts in this forum
You cannot post attachments in this forum

Search for:
Яндекс.Метрика
Powered by phpBB © 2000, 2002, 2005, 2007 phpBB Group