\m/ 80's metal \m/

Информационно-аналитический форум "80 см пыли" (In Search We Trust) "У нас никто никуда не спешит"
Me For You - http://me-4u.com
It is currently 18 Nov 2019

All times are UTC + 3 hours

Spoiler
Chat - temporary registration for foreign users (please leave your application here)







Post new topic Reply to topic  [ 45 posts ]  Go to page Previous  1, 2, 3  Next
Author Message
 
PostPosted: 16 Mar 2015 
Рарник и трушник
User avatar
Joined: 25 Dec 2009
Posts: 8813
Lоcаtion: Москва
Age: 54
Name: Виталий
attax wrote:
ищите хорошую оцифровку с виниловой пластинки (моветонно не чищенную и не нормализованную) - если найдете, сюда скиньтя!

Не, на это я пойтить не могу... тока чищенную и нормализованную.
И бросьте барские замашки, надо ближе к народу быть! :pardon:


Top
 Profile  
 
 
PostPosted: 25 Sep 2017 
Трешер
User avatar
Joined: 25 Feb 2011
Posts: 1118
Lоcаtion: Харьков
Age: 43
Name: Aleksandr
Обещанного 4 года ждут :oops: Виталий выложи по возможности :thanx:


Top
 Profile E-mail  
 
 
PostPosted: 25 Sep 2017 
А может смените мне статус?..
User avatar
Joined: 17 Jan 2008
Posts: 899
Lоcаtion: Пенза
Age: 42
Name: Денис
Вот такой лось есть
Image
Image
https://cloud.mail.ru/public/9bkY/YEZL4AH2a


Last edited by klod77 on 25 Sep 2017, edited 1 time in total.

Top
 Profile  
 
 
PostPosted: 25 Sep 2017 
Рарник и трушник
User avatar
Joined: 25 Dec 2009
Posts: 8813
Lоcаtion: Москва
Age: 54
Name: Виталий
glloomerxe wrote:
Обещанного 4 года ждут

Да я думал шо уже ненадо давно. :vic:


Top
 Profile  
 
 
PostPosted: 25 Sep 2017 
Хиппей (support team)
User avatar
Joined: 30 Jul 2007
Posts: 115560
Lоcаtion: Киев (Kyiv, UA)
Age: 46
Name: Andrey
Уже и Серёга Аттакс ушёл куда-то..
Надеюсь, не навечно :(

_________________


Top
 Profile E-mail  
 
 
PostPosted: 25 Sep 2017 
Хиппей (support team)
User avatar
Joined: 30 Jul 2007
Posts: 115560
Lоcаtion: Киев (Kyiv, UA)
Age: 46
Name: Andrey
klod77 wrote:
Вот такой лось есть

:thanx:

Image Image

mirror: Ur-Files l M-Cloud l Uloz l Narod l Telega

Image Image

Image Image

cue
REM GENRE "Heavy Metal"
REM DATE 1985
REM COMMENT "Ripped by Strappado"
PERFORMER "Destiny"
TITLE "Beyond All Sense"
FILE "Destiny - Beyond All Sense.flac" WAVE
TRACK 01 AUDIO
TITLE "Intro - Destiny"
INDEX 01 00:00:00
TRACK 02 AUDIO
TITLE "Rest In Peace"
INDEX 01 01:34:58
TRACK 03 AUDIO
TITLE "Spellbreaker"
INDEX 01 05:56:10
TRACK 04 AUDIO
TITLE "Hang Them High"
INDEX 01 10:41:41
TRACK 05 AUDIO
TITLE "Sirens In The Dark"
INDEX 01 13:14:42
TRACK 06 AUDIO
TITLE "Kill The Witch"
INDEX 01 18:10:05
TRACK 07 AUDIO
TITLE "Lost To Heaven"
INDEX 01 22:02:40
TRACK 08 AUDIO
TITLE "More Evil Than Evil"
INDEX 01 23:49:51
TRACK 09 AUDIO
TITLE "Power By Birth"
INDEX 01 27:30:25
TRACK 10 AUDIO
TITLE "Sacrilege"
INDEX 01 32:03:00

_________________


Top
 Profile E-mail  
 
 
PostPosted: 25 Sep 2017 
А может смените мне статус?..
Joined: 03 Jul 2009
Posts: 890
Lоcаtion: Serbia
Name: Laki
:thanx: :thanx:

Request closed


Top
 Profile E-mail  
 
 
PostPosted: 26 Sep 2017 
Хиппей (support team)
User avatar
Joined: 30 Jul 2007
Posts: 115560
Lоcаtion: Киев (Kyiv, UA)
Age: 46
Name: Andrey
:thanx: :thanx:

Request closed

Вах. Доне :kro:

_________________


Top
 Profile E-mail  
 
 
PostPosted: 26 Sep 2017 
Хиппей (support team)
User avatar
Joined: 30 Jul 2007
Posts: 115560
Lоcаtion: Киев (Kyiv, UA)
Age: 46
Name: Andrey
Лаки, тебе понравился рип этого альбома?

_________________


Top
 Profile E-mail  
 
 
PostPosted: 26 Sep 2017 
А может смените мне статус?..
Joined: 03 Jul 2009
Posts: 890
Lоcаtion: Serbia
Name: Laki
Лаки, тебе понравился рип этого альбома?


Yes, I like it. It's good, maybe louder than I prefer, but no distortion, which is great. Thanks again for the upload


Top
 Profile E-mail  
 
 
PostPosted: 26 Sep 2017 
Хиппей (support team)
User avatar
Joined: 30 Jul 2007
Posts: 115560
Lоcаtion: Киев (Kyiv, UA)
Age: 46
Name: Andrey
О как :kro:

Тогда отменяем Виталия просить оцифровать пластинку?

_________________


Top
 Profile E-mail  
 
 
PostPosted: 26 Sep 2017 
Трешер
User avatar
Joined: 25 Feb 2011
Posts: 1118
Lоcаtion: Харьков
Age: 43
Name: Aleksandr
Нет у Виталия будет лучше ! :thanx:


Top
 Profile E-mail  
 
 
PostPosted: 26 Sep 2017 
Хиппей (support team)
User avatar
Joined: 30 Jul 2007
Posts: 115560
Lоcаtion: Киев (Kyiv, UA)
Age: 46
Name: Andrey
Ну это пока никак не проверить.
Лаки сам запрос закрыл :pardon:

_________________


Top
 Profile E-mail  
 
 
PostPosted: 26 Sep 2017 
Трешер
User avatar
Joined: 25 Feb 2011
Posts: 1118
Lоcаtion: Харьков
Age: 43
Name: Aleksandr
Виталий запрос закрыли но если будет время сделаешь :thanx:


Та же беда с облака не :( могу скачать


Top
 Profile E-mail  
 
 
PostPosted: 26 Sep 2017 
А может смените мне статус?..
Joined: 03 Jul 2009
Posts: 890
Lоcаtion: Serbia
Name: Laki
Again open :smile:

If Vitalii can rip his record, that would be great


Top
 Profile E-mail  
 
 
PostPosted: 26 Sep 2017 
Рарник и трушник
User avatar
Joined: 25 Dec 2009
Posts: 8813
Lоcаtion: Москва
Age: 54
Name: Виталий
Друзья, проблема в том, что этот винил был давно у меня, и цифровался на старом оборудовании, хоть и не плохо получилось, но не ровня современному стаффу. Больше этого винила у меня не было, так что страппадовский лось может быть на уровне. Но я залью лося.


Top
 Profile  
 
 
PostPosted: 26 Sep 2017 
А может смените мне статус?..
Joined: 03 Jul 2009
Posts: 890
Lоcаtion: Serbia
Name: Laki
Sorry for hijacking the thread. Vitaly, do you still have Stormwitch Tales of Terror ? If so can you re rip it on your current record player, please?


Top
 Profile E-mail  
 
 
PostPosted: 26 Sep 2017 
Рарник и трушник
User avatar
Joined: 25 Dec 2009
Posts: 8813
Lоcаtion: Москва
Age: 54
Name: Виталий
glory11 wrote:
do you still have Stormwitch Tales of Terror ? If so can you re rip it on your current record player, please?

OK.


Top
 Profile  
 
 
PostPosted: 26 Sep 2017 
Навечно изгнанный
User avatar
Joined: 04 May 2009
Posts: 502
Lоcаtion: Загорск (Сергиев Посад)
Age: 48
Name: Евгений
Спасибо, Денис! :thanx:

_________________
"$? -Это не деньги! Рубли давайте!"


Top
 Profile  
 
 
PostPosted: 27 Sep 2017 
А может смените мне статус?..
Joined: 03 Jul 2009
Posts: 890
Lоcаtion: Serbia
Name: Laki
glory11 wrote:
do you still have Stormwitch Tales of Terror ? If so can you re rip it on your current record player, please?

OK.

Great :thanx:


Top
 Profile E-mail  
 
Display posts from previous:  Sort by  
Post new topic Reply to topic  [ 45 posts ]  Go to page Previous  1, 2, 3  Next

All times are UTC + 3 hours


Who is online

Users browsing this forum: No registered users and 4 guests


You cannot post new topics in this forum
You cannot reply to topics in this forum
You cannot edit your posts in this forum
You cannot delete your posts in this forum
You cannot post attachments in this forum

Search for:
Яндекс.Метрика
Powered by phpBB © 2000, 2002, 2005, 2007 phpBB Group