\m/ 80's metal \m/

Информационно-аналитический форум "80 см пыли" (In Search We Trust) "У нас никто никуда не спешит"
Me For You - http://me-4u.com
It is currently 18 Jul 2019

All times are UTC + 3 hours

Spoiler
Chat - temporary registration for foreign users (please leave your application here)







Post new topic Reply to topic  [ 11 posts ] 
Author Message
 
PostPosted: 05 Oct 2008 
udo
User avatar
Joined: 01 Mar 2008
Posts: 2343
Lоcаtion: Краснодар
Age: 48
Name: РОМАН
Bellicose - Love on ice

Image

<Year> 1989
<Style> Heavy Metal
<Country> USA
<Format> 192 kb/s
<Size> 50 mb


<Line>
Joe Darangelo - vocals
Michael Laurence - guitar
Russ Spearman - guitar
Staley Rodgers - bass
T. Grugle - drums

<Tracklist>
1. Love On Ice 03:24
2. Torn From The Mold 05:25
3. The Blinding 03:21
4. Fight The Fire 03:40
5. Run For Cover 05:12
6. If Only 05:14
7. Mercenery 03:34
8. Dream Of The Sinner 03:54
9. Daniel Lee 02:03
Total playing time 35:47

http://ifolder.ru/8423782


Top
 Profile E-mail  
 
 
PostPosted: 07 Oct 2018 
Я набрал 1000 сообщений!
Joined: 12 Dec 2008
Posts: 1066
Lоcаtion: BULGARIA
Age: 40
Name: DIMITЪR
Image

Year:1989
Genre:Heavy Metal
Country:USA
https://www.metal-archives.com/albums/B ... Ice/173453

Trasklist:
1.Love on Ice
2.Torn from the Mold
3.The Blinding
4.Fight the Fire
5.Run for Cover
6.If Only
7.The Mercenery
8.Dream of the Sinner
9.Daniel Lee

Альбомчик шедьовр!!!! :dance: :dance: :dance:


Last edited by cryptors on 28 Feb 2019, edited 1 time in total.

Top
 Profile  
 
 
PostPosted: 25 Jan 2019 
Rara avis
User avatar
Joined: 27 Jan 2009
Posts: 5160
Name: .
Димитр, а у тебе есть 16-ти песенное переиздание альбома?


Top
 Profile E-mail  
 
 
PostPosted: 25 Jan 2019 
Я набрал 1000 сообщений!
Joined: 12 Dec 2008
Posts: 1066
Lоcаtion: BULGARIA
Age: 40
Name: DIMITЪR
Димитр, а у тебе есть 16-ти песенное переиздание альбома?


Нет :pardon: :pardon: :pardon: :pardon:


Top
 Profile  
 
 
PostPosted: 21 Feb 2019 
Я набрал 1000 сообщений!
Joined: 12 Dec 2008
Posts: 1066
Lоcаtion: BULGARIA
Age: 40
Name: DIMITЪR
Димитр, а у тебе есть 16-ти песенное переиздание альбома?


На тракере появился, не сльшал еще, греческое издание, по качество звука отпишусь позже :vic: :vic: :vic: :vic:
https://rutracker.org/forum/viewtopic.php?t=5690376


Top
 Profile  
 
 
PostPosted: 24 Feb 2019 
Я набрал 1000 сообщений!
Joined: 12 Dec 2008
Posts: 1066
Lоcаtion: BULGARIA
Age: 40
Name: DIMITЪR
Качество хорошие и демка с 88 года тоже :dance: :dance: :dance:

Belliose - Razors Edge (1988) (Demo)


Top
 Profile  
 
 
PostPosted: 26 Feb 2019 
Хиппей (support team)
User avatar
Joined: 30 Jul 2007
Posts: 113522
Lоcаtion: Киев (Kyiv, UA)
Age: 46
Name: Andrey
cryptors wrote:

:thanx:

_________________


Top
 Profile E-mail  
 
 
PostPosted: 27 Feb 2019 
Хиппей (support team)
User avatar
Joined: 30 Jul 2007
Posts: 113522
Lоcаtion: Киев (Kyiv, UA)
Age: 46
Name: Andrey
Bellicose - 1989 - Love On Ice (reissue 2014) [flac]

Image Image

mirror: Uloz l Drop l Narod l M-Cloud

Хорошая музыка, приятный вокал :meloman:
Без соплей музыка.
Шадьовр ли? Ну-у-у, мне понравились некоторые песни, но в целом не шедевр, а просто очень хороший и качественный релиз без изысков.

7/10

Image Image

Image Image Image

Image Image Image

log
Exact Audio Copy V1.3 from 2. September 2016

EAC extraction logfile from 13. February 2019, 18:42

BELLICOSE / LOVE ON ICE

Used drive : HL-DT-STDVDRAM GU40N Adapter: 0 ID: 1

Read mode : Secure
Utilize accurate stream : Yes
Defeat audio cache : Yes
Make use of C2 pointers : No

Read offset correction : 103
Overread into Lead-In and Lead-Out : No
Fill up missing offset samples with silence : Yes
Delete leading and trailing silent blocks : No
Null samples used in CRC calculations : Yes
Used interface : Installed external ASPI interface

Used output format : User Defined Encoder
Selected bitrate : 128 kBit/s
Quality : High
Add ID3 tag : No
Command line compressor : C:\Program Files (x86)\Exact Audio Copy\Flac\flac.exe
Additional command line options : -V -8 -T "Date=%year%" -T "Genre=%genre%" %source%


TOC of the extracted CD

Track | Start | Length | Start sector | End sector
---------------------------------------------------------
1 | 0:00.00 | 3:26.35 | 0 | 15484
2 | 3:26.35 | 5:31.41 | 15485 | 40350
3 | 8:58.01 | 3:17.59 | 40351 | 55184
4 | 12:15.60 | 3:42.22 | 55185 | 71856
5 | 15:58.07 | 5:18.55 | 71857 | 95761
6 | 21:16.62 | 5:15.56 | 95762 | 119442
7 | 26:32.43 | 3:39.36 | 119443 | 135903
8 | 30:12.04 | 3:56.21 | 135904 | 153624
9 | 34:08.25 | 2:04.41 | 153625 | 162965
10 | 36:12.66 | 3:58.09 | 162966 | 180824
11 | 40:11.00 | 5:54.14 | 180825 | 207388
12 | 46:05.14 | 6:30.10 | 207389 | 236648
13 | 52:35.24 | 5:41.57 | 236649 | 262280
14 | 58:17.06 | 5:41.72 | 262281 | 287927
15 | 63:59.03 | 5:39.08 | 287928 | 313360
16 | 69:38.11 | 5:09.59 | 313361 | 336594


Range status and errors

Selected range

Filename C:\Users\workutagin\Desktop\BELLICOSE - LOVE ON ICE 1989(2014)\BELLICOSE - LOVE ON ICE.wav

Peak level 97.8 %
Extraction speed 2.1 X
Range quality 100.0 %
Test CRC 2720AD2F
Copy CRC 2720AD2F
Copy OK

No errors occurred


AccurateRip summary

Track 1 not present in database
Track 2 not present in database
Track 3 not present in database
Track 4 not present in database
Track 5 not present in database
Track 6 not present in database
Track 7 not present in database
Track 8 not present in database
Track 9 not present in database
Track 10 not present in database
Track 11 not present in database
Track 12 not present in database
Track 13 not present in database
Track 14 not present in database
Track 15 not present in database
Track 16 not present in database

None of the tracks are present in the AccurateRip database

End of status report

---- CUETools DB Plugin V2.1.6

[CTDB TOCID: cLGRqEQD__DahGGxhhqUSZVov0w-] found
Submit result: cLGRqEQD__DahGGxhhqUSZVov0w- has been confirmed
Track | CTDB Status
1 | (3/3) Accurately ripped
2 | (3/3) Accurately ripped
3 | (3/3) Accurately ripped
4 | (3/3) Accurately ripped
5 | (3/3) Accurately ripped
6 | (3/3) Accurately ripped
7 | (3/3) Accurately ripped
8 | (3/3) Accurately ripped
9 | (3/3) Accurately ripped
10 | (3/3) Accurately ripped
11 | (3/3) Accurately ripped
12 | (3/3) Accurately ripped
13 | (3/3) Accurately ripped
14 | (3/3) Accurately ripped
15 | (3/3) Accurately ripped
16 | (2/3) Accurately ripped


==== Log checksum 4D24D4FBBF1EC612C2C83374D05CEB28F1A7104422EA363D70EA44B5A9DFB5D5 ====

cue
REM GENRE "Heavy Metal"
REM DATE 1989
REM DISCID E3118710
REM COMMENT "ExactAudioCopy v1.3"
PERFORMER "BELLICOSE "
TITLE "LOVE ON ICE"
REM COMPOSER "BELLICOSE "
FILE "BELLICOSE - LOVE ON ICE.flac" WAVE
TRACK 01 AUDIO
TITLE " Love On Ice "
PERFORMER "BELLICOSE "
REM COMPOSER "BELLICOSE "
INDEX 01 00:00:00
TRACK 02 AUDIO
TITLE " Torn From The Mold "
PERFORMER "BELLICOSE "
REM COMPOSER "BELLICOSE "
INDEX 00 03:25:53
INDEX 01 03:26:35
TRACK 03 AUDIO
TITLE " The Blinding "
PERFORMER "BELLICOSE "
REM COMPOSER "BELLICOSE "
INDEX 00 08:56:70
INDEX 01 08:58:01
TRACK 04 AUDIO
TITLE " Fight The Fire"
PERFORMER "BELLICOSE "
REM COMPOSER "BELLICOSE "
INDEX 00 12:14:73
INDEX 01 12:15:60
TRACK 05 AUDIO
TITLE " Run For Cover "
PERFORMER "BELLICOSE "
REM COMPOSER "BELLICOSE "
INDEX 00 15:56:60
INDEX 01 15:58:07
TRACK 06 AUDIO
TITLE "If Only "
PERFORMER "BELLICOSE "
REM COMPOSER "BELLICOSE "
INDEX 00 21:15:71
INDEX 01 21:16:62
TRACK 07 AUDIO
TITLE " Mercenery "
PERFORMER "BELLICOSE "
REM COMPOSER "BELLICOSE "
INDEX 00 26:32:03
INDEX 01 26:32:43
TRACK 08 AUDIO
TITLE "Dream Of The Sinner"
PERFORMER "BELLICOSE "
REM COMPOSER "BELLICOSE "
INDEX 00 30:11:14
INDEX 01 30:12:04
TRACK 09 AUDIO
TITLE "Daniel Lee "
PERFORMER "BELLICOSE "
REM COMPOSER "BELLICOSE "
INDEX 00 34:06:26
INDEX 01 34:08:25
TRACK 10 AUDIO
TITLE " Razors Edge 1988 Demo"
PERFORMER "BELLICOSE "
REM COMPOSER "BELLICOSE "
INDEX 00 36:11:66
INDEX 01 36:12:66
TRACK 11 AUDIO
TITLE " Spirit Child 1988 Unreleased Track"
PERFORMER "BELLICOSE "
REM COMPOSER "BELLICOSE "
INDEX 00 40:10:03
INDEX 01 40:11:00
TRACK 12 AUDIO
TITLE "Dayz End 1984 Demo"
PERFORMER "BELLICOSE "
REM COMPOSER "BELLICOSE "
INDEX 00 46:04:03
INDEX 01 46:05:14
TRACK 13 AUDIO
TITLE "Run For Cover 1984 Demo"
PERFORMER "BELLICOSE "
REM COMPOSER "BELLICOSE "
INDEX 00 52:34:47
INDEX 01 52:35:24
TRACK 14 AUDIO
TITLE "Landslide 1984 Demo"
PERFORMER "BELLICOSE "
REM COMPOSER "BELLICOSE "
INDEX 00 58:16:50
INDEX 01 58:17:06
TRACK 15 AUDIO
TITLE " Why Can't We Live 1984 Demo"
PERFORMER "BELLICOSE "
REM COMPOSER "BELLICOSE "
INDEX 00 63:58:18
INDEX 01 63:59:03
TRACK 16 AUDIO
TITLE "Torn From the Mold 1984 Demo"
PERFORMER "BELLICOSE "
REM COMPOSER "BELLICOSE "
INDEX 00 69:37:60
INDEX 01 69:38:11

_________________


Top
 Profile E-mail  
 
 
PostPosted: 05 Apr 2019 
Rara avis
User avatar
Joined: 27 Jan 2009
Posts: 5160
Name: .
:true: :thanx:


Top
 Profile E-mail  
 
 
PostPosted: 06 Apr 2019 
Анатолий
User avatar
Joined: 18 Oct 2008
Posts: 3505
Lоcаtion: Армавир
Age: 42
Name: Анатолий
Кстати говоря отличная группа и прекрасный альбом! Спасибо!!! :thanx: :true:

Вокальные партии иногда выполнены в духе Джои Белладонны. А некоторые мелодии и гармонии вполне могут показаться родными всем меломанам с постсоветсткого пространства.


Top
 Profile E-mail  
 
 
PostPosted: 06 Apr 2019 
Я набрал 1000 сообщений!
Joined: 24 Oct 2009
Posts: 2233
Lоcаtion: Оренбург
Age: 55
Name: Юра
:thanx:

_________________
:dash: I am happy!


Top
 Profile E-mail  
 
Display posts from previous:  Sort by  
Post new topic Reply to topic  [ 11 posts ] 

All times are UTC + 3 hours


Who is online

Users browsing this forum: No registered users and 2 guests


You cannot post new topics in this forum
You cannot reply to topics in this forum
You cannot edit your posts in this forum
You cannot delete your posts in this forum
You cannot post attachments in this forum

Search for:
Яндекс.Метрика
Powered by phpBB © 2000, 2002, 2005, 2007 phpBB Group