\m/ 80's metal \m/

Информационно-аналитический форум "80 см пыли" (In Search We Trust) "У нас никто никуда не спешит"
Железнодорожная биржа - RailAgent
It is currently 14 Dec 2017

All times are UTC + 3 hours

Spoiler
Chat - temporary registration for foreign users (please leave your application here)







Post new topic Reply to topic  [ 15 posts ] 
Author Message
 
PostPosted: 11 Oct 2017 
Анатолий
User avatar
Joined: 18 Oct 2008
Posts: 2736
Lоcаtion: Армавир
Age: 40
Name: Анатолий
Меня интересует всё дискография этого коллектива. Как оформлять запрос?


Last edited by Privateer on 11 Oct 2017, edited 1 time in total.

Top
 Profile E-mail  
 
 
PostPosted: 11 Oct 2017 
Хиппей (support team)
User avatar
Joined: 30 Jul 2007
Posts: 97018
Lоcаtion: Киев (Kyiv, UA)
Age: 44
Name: Andrey
По правилам, Толя :cry:

В этой теме пиши все искомые альбомы и релизы и оформляй как обычно :thanx:

_________________


Top
 Profile E-mail  
 
 
PostPosted: 11 Oct 2017 
Анатолий
User avatar
Joined: 18 Oct 2008
Posts: 2736
Lоcаtion: Армавир
Age: 40
Name: Анатолий
Lion - "Power Love" - 1986 ( Bonus Tracks )

Image

Track listing:

1 Power Love 3:50
2 Stranger in the City 4:53
3 Victim of Circumstance 3:37
4 Hungry for Love 4:22
5 Love is a Lie 4:47
6 Forgotten Sons 5:58
Mark Edwards - Code of Honor
7 Kamikaze 4:11
8 Code of Honor 5:36
9 Snakebite 4:19
10 Dance with the Devil 3:59

Total length: 45:32


Lion - "Dangerous Attraction " - 1987

Image

Track listing:

1 Fatal Attractions 4:16
2 Armed and Dangerous 3:41
3 Hard and Heavy 4:35
4 Never Surrender 3:33
5 Death on Legs 4:14
6 Power Love 3:56
7 In the Name of Love 6:18
8 After the Fire 4:43
9 Shout It Out 5:21

Total length: 40:37


Liob - "Trouble in Angel City"

Image

Track listing

1 Come On 5:58
2 Lock Up Your Daughters 3:34
3 Can't Stop the Rain 3:40
4 Love Is a Lie 4:44
5 Victims of Circumstance 3:48
6 Stranger in the City 5:17
7 Hungry for Love 4:26
8 Hold On 4:00
9 Lonely Girl 1:40
10 Forgotten Sons 5:46

Total length: 42:53


Top
 Profile E-mail  
 
 
PostPosted: 11 Oct 2017 
Хиппей (support team)
User avatar
Joined: 30 Jul 2007
Posts: 97018
Lоcаtion: Киев (Kyiv, UA)
Age: 44
Name: Andrey
Хм... всего ТРИ альбома? :(

_________________


Top
 Profile E-mail  
 
 
PostPosted: 11 Oct 2017 
Хиппей (support team)
User avatar
Joined: 30 Jul 2007
Posts: 97018
Lоcаtion: Киев (Kyiv, UA)
Age: 44
Name: Andrey
В первом сообщении желательно все запросы по группе разместить, эх, память у вас, Анатолик... :fingal:

_________________


Top
 Profile E-mail  
 
 
PostPosted: 11 Oct 2017 
Хиппей (support team)
User avatar
Joined: 30 Jul 2007
Posts: 97018
Lоcаtion: Киев (Kyiv, UA)
Age: 44
Name: Andrey
Privateer wrote:
Lion - "Power Love" - 1986 ( Bonus Tracks )

А какой там трэк бонусный то? :lloo:

_________________


Top
 Profile E-mail  
 
 
PostPosted: 12 Oct 2017 
Генеральный thrasher
User avatar
Joined: 03 Oct 2008
Posts: 3255
Lоcаtion: Ханты-Мансийский АО
Age: 42
Name: Сергей
Странный запрос. На трэкере все три есть. Японские издания...

https://rutracker.org/forum/viewtopic.php?t=4142866


Top
 Profile  
 
 
PostPosted: 12 Oct 2017 
Хиппей (support team)
User avatar
Joined: 30 Jul 2007
Posts: 97018
Lоcаtion: Киев (Kyiv, UA)
Age: 44
Name: Andrey
Толя вообще загадочная личность :tro:

_________________


Top
 Profile E-mail  
 
 
PostPosted: 12 Oct 2017 
Анатолий
User avatar
Joined: 18 Oct 2008
Posts: 2736
Lоcаtion: Армавир
Age: 40
Name: Анатолий
Ё-моё..., я вчера нашёл только один альбом и тот с пометкой сомнительно...

Прошу пардону! Тему грохните пожалуйста.


Top
 Profile E-mail  
 
 
PostPosted: 12 Oct 2017 
Хиппей (support team)
User avatar
Joined: 30 Jul 2007
Posts: 97018
Lоcаtion: Киев (Kyiv, UA)
Age: 44
Name: Andrey
Privateer wrote:
Тему грохните пожалуйста.

... :shok: ...

Проспись и пой, Толя :thanx:
У нас ничего не грохается.
Сегодня перезалью сюда "Льва" этого.

_________________


Top
 Profile E-mail  
 
 
PostPosted: 12 Oct 2017 
Хиппей (support team)
User avatar
Joined: 30 Jul 2007
Posts: 97018
Lоcаtion: Киев (Kyiv, UA)
Age: 44
Name: Andrey
Privateer wrote:
Lion - "Dangerous Attraction " - 1987

Обычный хрень-хард-рок привычный :pardon: Ничем не выделяется, но и не очень подташнивает.

4+/10

_________________


Top
 Profile E-mail  
 
 
PostPosted: 12 Oct 2017 
Хиппей (support team)
User avatar
Joined: 30 Jul 2007
Posts: 97018
Lоcаtion: Киев (Kyiv, UA)
Age: 44
Name: Andrey
Ай, у Толика всё перепутано. Или наоборот - на Рутрахторе.

В общем, второй альбом, а качал я его с Трахтора, более-мене понравился - активный Hard & Heavy с креном в Вайтснэйковщину раннюю и скандинавский хэви :meloman:

6/10

_________________


Top
 Profile E-mail  
 
 
PostPosted: 12 Oct 2017 
Хиппей (support team)
User avatar
Joined: 30 Jul 2007
Posts: 97018
Lоcаtion: Киев (Kyiv, UA)
Age: 44
Name: Andrey
Третий альбом почти такой же как и второй - мелодичный хардынхэви стандартный.

6/10

_________________


Top
 Profile E-mail  
 
 
PostPosted: 13 Oct 2017 
Хиппей (support team)
User avatar
Joined: 30 Jul 2007
Posts: 97018
Lоcаtion: Киев (Kyiv, UA)
Age: 44
Name: Andrey
Lion - 1987 - Dangerous Attraction [flac]

Image Image Image

mirror: Depos l Narod l M-Cloud l Drop

Image Image Image

log
Exact Audio Copy V0.99 prebeta 5 from 4. May 2009

Отчёт EAC об извлечении, выполненном 18. апреля 2011, 10:48

Lion / Dangerous Attraction [D32Y-0122]

Дисковод: Optiarc DVD RW AD-7200A Adapter: 1 ID: 0

Режим чтения : Достоверность
Использование точного потока : Да
Отключение кэша аудио : Да
Использование указателей C2 : Нет

Коррекция смещения при чтении : 48
Способность читать области Lead-in и Lead-out : Нет
Заполнение пропущенных сэмплов тишиной : Да
Удаление блоков с тишиной в начале и конце : Нет
При вычислениях CRC использовались нулевые сэмплы : Да
Интерфейс : Встроенный Win32-интерфейс для Win NT/2000

Выходной формат : Пользовательский кодировщик
Выбранный битрейт : 128 kBit/s
Качество : Высокий
Добавление ID3-тэга : Нет
Утилита сжатия : C:\Program Files\Exact Audio Copy\Flac\flac.exe
Дополнительные параметры : -8 -V -T "artist=%a" -T "title=%t" -T "album=%g" -T "date=%y" -T "tracknumber=%n" -T "genre=%m" -T "comment=EAC


TOC извлечённого CD

Трек | Старт | Длительность | Начальный сектор | Конечный сектор
---------------------------------------------------------------------
1 | 0:00.00 | 4:16.27 | 0 | 19226
2 | 4:16.27 | 3:41.35 | 19227 | 35836
3 | 7:57.62 | 4:35.60 | 35837 | 56521
4 | 12:33.47 | 3:33.05 | 56522 | 72501
5 | 16:06.52 | 4:14.45 | 72502 | 91596
6 | 20:21.22 | 3:56.03 | 91597 | 109299
7 | 24:17.25 | 6:18.55 | 109300 | 137704
8 | 30:36.05 | 4:43.37 | 137705 | 158966
9 | 35:19.42 | 5:23.08 | 158967 | 183199


Характеристики диапазона извлечения и сообщения об ошибках

Выбранный диапазон

Имя файла Y:\Музыка\Lion\1987 Dangerous Attraction\Lion - Dangerous Attraction [D32Y-0122].wav

Пиковый уровень 89.9 %
Качество диапазона 99.9 %
CRC теста F43448D0
CRC копии F43448D0
Копирование... OK

Ошибок не произошло


AccurateRip: сводка

Трек 1 нет в базе данных
Трек 2 нет в базе данных
Трек 3 нет в базе данных
Трек 4 нет в базе данных
Трек 5 нет в базе данных
Трек 6 нет в базе данных
Трек 7 нет в базе данных
Трек 8 нет в базе данных
Трек 9 нет в базе данных

Ни одного трека нет в базе AccurateRip

Конец отчёта

cue
REM GENRE "Hard Rock"
REM DATE 1987
REM DISCID 82098A09
REM COMMENT "ExactAudioCopy v0.99pb5"
PERFORMER "Lion"
TITLE "Dangerous Attraction [D32Y-0122]"
FILE "Lion - Dangerous Attraction [D32Y-0122].flac" WAVE
TRACK 01 AUDIO
TITLE "Fatal Attraction"
PERFORMER "Lion"
INDEX 01 00:00:00
TRACK 02 AUDIO
TITLE "Armed And Dangerous"
PERFORMER "Lion"
INDEX 01 04:16:27
TRACK 03 AUDIO
TITLE "Hard And Heavy"
PERFORMER "Lion"
INDEX 01 07:57:62
TRACK 04 AUDIO
TITLE "Never Surrender"
PERFORMER "Lion"
INDEX 01 12:33:47
TRACK 05 AUDIO
TITLE "Death On Legs"
PERFORMER "Lion"
INDEX 01 16:06:52
TRACK 06 AUDIO
TITLE "Powerlove"
PERFORMER "Lion"
INDEX 00 20:20:07
INDEX 01 20:21:22
TRACK 07 AUDIO
TITLE "In The Name Of Love"
PERFORMER "Lion"
INDEX 01 24:17:25
TRACK 08 AUDIO
TITLE "After The Fire"
PERFORMER "Lion"
INDEX 01 30:36:05
TRACK 09 AUDIO
TITLE "Shout It Out"
PERFORMER "Lion"
INDEX 01 35:19:42


Lion - 1987 - Power Love - Code of Honor [flac]

Image Image Image

mirror: Depos l Narod l M-Cloud l Drop

Image Image Image

log
Exact Audio Copy V0.99 prebeta 5 from 4. May 2009

Отчёт EAC об извлечении, выполненном 16. марта 2011, 10:50

Lion / Mark Edwards / Power Love / Code of Honor [MP32-5122]

Дисковод: Optiarc DVD RW AD-7200A Adapter: 1 ID: 0

Режим чтения : Достоверность
Использование точного потока : Да
Отключение кэша аудио : Да
Использование указателей C2 : Нет

Коррекция смещения при чтении : 48
Способность читать области Lead-in и Lead-out : Нет
Заполнение пропущенных сэмплов тишиной : Да
Удаление блоков с тишиной в начале и конце : Нет
При вычислениях CRC использовались нулевые сэмплы : Да
Интерфейс : Встроенный Win32-интерфейс для Win NT/2000

Выходной формат : Пользовательский кодировщик
Выбранный битрейт : 128 kBit/s
Качество : Высокий
Добавление ID3-тэга : Нет
Утилита сжатия : C:\Program Files\Exact Audio Copy\Flac\flac.exe
Дополнительные параметры : -8 -V -T "artist=%a" -T "title=%t" -T "album=%g" -T "date=%y" -T "tracknumber=%n" -T "genre=%m" -T "comment=EAC


TOC извлечённого CD

Трек | Старт | Длительность | Начальный сектор | Конечный сектор
---------------------------------------------------------------------
1 | 0:00.37 | 3:49.40 | 37 | 17251
2 | 3:50.02 | 4:55.70 | 17252 | 39446
3 | 8:45.72 | 3:36.73 | 39447 | 55719
4 | 12:22.70 | 4:22.42 | 55720 | 75411
5 | 16:45.37 | 4:47.03 | 75412 | 96939
6 | 21:32.40 | 6:03.07 | 96940 | 124171
7 | 27:35.47 | 4:11.15 | 124172 | 143011
8 | 31:46.62 | 5:41.30 | 143012 | 168616
9 | 37:28.17 | 4:19.68 | 168617 | 188109
10 | 41:48.10 | 3:59.65 | 188110 | 206099


Характеристики диапазона извлечения и сообщения об ошибках

Выбранный диапазон

Имя файла Y:\Музыка\Lion_Mark Edwards\1987 Power Love - Code of Honor\Lion_Mark Edwards - Power Love_Code of Honor [MP32-5122].wav

Пиковый уровень 100.0 %
Качество диапазона 100.0 %
CRC теста 09656F48
CRC копии 09656F48
Копирование... OK

Ошибок не произошло


AccurateRip: сводка

Трек 1 нет в базе данных
Трек 2 нет в базе данных
Трек 3 нет в базе данных
Трек 4 нет в базе данных
Трек 5 нет в базе данных
Трек 6 нет в базе данных
Трек 7 нет в базе данных
Трек 8 нет в базе данных
Трек 9 нет в базе данных
Трек 10 нет в базе данных

Ни одного трека нет в базе AccurateRip

Конец отчёта

cue
REM GENRE "Hard Rock"
REM DATE 1987
REM DISCID 740ABC0A
REM COMMENT "ExactAudioCopy v0.99pb5"
PERFORMER "Lion / Mark Edwards"
TITLE "Power Love / Code of Honor [MP32-5122]"
FILE "Lion_Mark Edwards - Power Love_Code of Honor [MP32-5122].flac" WAVE
TRACK 01 AUDIO
TITLE "Power Love"
PERFORMER "Lion / Mark Edwards"
INDEX 00 00:00:00
INDEX 01 00:00:37
TRACK 02 AUDIO
TITLE "Stranger In The City"
PERFORMER "Lion / Mark Edwards"
INDEX 01 03:50:02
TRACK 03 AUDIO
TITLE "Victim Of Circumstance"
PERFORMER "Lion / Mark Edwards"
INDEX 00 08:45:17
INDEX 01 08:45:72
TRACK 04 AUDIO
TITLE "Hungry For Love"
PERFORMER "Lion / Mark Edwards"
INDEX 00 12:21:70
INDEX 01 12:22:70
TRACK 05 AUDIO
TITLE "Love Is A Lie"
PERFORMER "Lion / Mark Edwards"
INDEX 01 16:45:37
TRACK 06 AUDIO
TITLE "Forgotten Sons"
PERFORMER "Lion / Mark Edwards"
INDEX 00 21:30:70
INDEX 01 21:32:40
TRACK 07 AUDIO
TITLE "Kamikaze"
PERFORMER "Lion / Mark Edwards"
INDEX 00 27:33:27
INDEX 01 27:35:47
TRACK 08 AUDIO
TITLE "Code Of Honor"
PERFORMER "Lion / Mark Edwards"
INDEX 00 31:46:17
INDEX 01 31:46:62
TRACK 09 AUDIO
TITLE "Snakebite"
PERFORMER "Lion / Mark Edwards"
INDEX 00 37:26:47
INDEX 01 37:28:17
TRACK 10 AUDIO
TITLE "Dance With The Devil"
PERFORMER "Lion / Mark Edwards"
INDEX 01 41:48:10


Lion - 1989 - Trouble In Angel City [flac]

Image Image Image

mirror: Depos l Narod l M-Cloud l Drop

Image Image Image

log
Exact Audio Copy V1.0 beta 3 from 29. August 2011

Отчёт EAC об извлечении, выполненном 16. июля 2012, 15:07

Lion / Trouble In Angel City [00GD-7104]

Дисковод: Optiarc DVD RW AD-7200A Adapter: 0 ID: 0

Режим чтения : Достоверность
Использование точного потока : Да
Отключение кэша аудио : Да
Использование указателей C2 : Нет

Коррекция смещения при чтении : 48
Способность читать области Lead-in и Lead-out : Нет
Заполнение пропущенных сэмплов тишиной : Да
Удаление блоков с тишиной в начале и конце : Нет
При вычислениях CRC использовались нулевые сэмплы : Да
Интерфейс : Встроенный Win32-интерфейс для Win NT/2000

Выходной формат : Пользовательский кодировщик
Выбранный битрейт : 32 kBit/s
Качество : Высокий
Добавление ID3-тега : Нет
Утилита сжатия : C:\Program Files\Exact Audio Copy\Flac\flac.exe
Дополнительные параметры : -V -8 -T "Date=%year%" -T "Genre=%genre%" %source%


TOC извлечённого CD

Трек | Старт | Длительность | Начальный сектор | Конечный сектор
---------------------------------------------------------------------
1 | 0:00.00 | 6:01.27 | 0 | 27101
2 | 6:01.27 | 3:36.68 | 27102 | 43369
3 | 9:38.20 | 3:41.67 | 43370 | 60011
4 | 13:20.12 | 4:44.63 | 60012 | 81374
5 | 18:05.00 | 3:52.05 | 81375 | 98779
6 | 21:57.05 | 5:20.12 | 98780 | 122791
7 | 27:17.17 | 4:26.15 | 122792 | 142756
8 | 31:43.32 | 4:04.65 | 142757 | 161121
9 | 35:48.22 | 1:42.15 | 161122 | 168786
10 | 37:30.37 | 5:47.43 | 168787 | 194854


Характеристики диапазона извлечения и сообщения об ошибках

Выбранный диапазон

Имя файла Y:\Music\Lion\1989 Trouble In Angel City\Lion - Trouble In Angel City [00GD-7104].wav

Пиковый уровень 85.0 %
Скорость извлечения 3.6 X
Качество диапазона 100.0 %
CRC теста 7BCFBCAE
CRC копии 7BCFBCAE
Копирование... OK

Ошибок не произошло


AccurateRip: сводка

Трек 1 точность не определена (достоверность 1) [DB01786B], AccurateRip вернул [4FE4B9B3] (AR v2)
Трек 2 точность не определена (достоверность 1) [98A2D308], AccurateRip вернул [F47E9E9F] (AR v2)
Трек 3 точность не определена (достоверность 1) [608AC471], AccurateRip вернул [D9CBE21F] (AR v2)
Трек 4 точность не определена (достоверность 1) [0200E9A7], AccurateRip вернул [6E7EF1F1] (AR v2)
Трек 5 точность не определена (достоверность 1) [C62BA8C8], AccurateRip вернул [A6571F67] (AR v2)
Трек 6 точность не определена (достоверность 1) [347E942A], AccurateRip вернул [37E3DC2A] (AR v2)
Трек 7 точность не определена (достоверность 1) [82F17735], AccurateRip вернул [2B296420] (AR v2)
Трек 8 точность не определена (достоверность 1) [1756175E], AccurateRip вернул [99A69E12] (AR v2)
Трек 9 точность не определена (достоверность 1) [D2EB735E], AccurateRip вернул [36B94FFE] (AR v2)
Трек 10 точность не определена (достоверность 1) [956DA671], AccurateRip вернул [999D00BC] (AR v2)

Ни один трек не прошёл проверки на точность
В вашей базе может быть иной вариант штамповки диска

Конец отчёта

cue
REM GENRE "Hard Rock"
REM DATE 1989
REM DISCID 780A260A
REM COMMENT "ExactAudioCopy v1.0b3"
PERFORMER "Lion"
TITLE "Trouble In Angel City [00GD-7104]"
FILE "Lion - Trouble In Angel City [00GD-7104].flac" WAVE
TRACK 01 AUDIO
TITLE "Come On"
PERFORMER "Lion"
INDEX 01 00:00:00
TRACK 02 AUDIO
TITLE "Lock Up Your Daughters"
PERFORMER "Lion"
INDEX 00 06:00:15
INDEX 01 06:01:27
TRACK 03 AUDIO
TITLE "Can't Stop The Rain"
PERFORMER "Lion"
INDEX 00 09:36:55
INDEX 01 09:38:20
TRACK 04 AUDIO
TITLE "Love Is A Lie"
PERFORMER "Lion"
INDEX 00 13:18:45
INDEX 01 13:20:12
TRACK 05 AUDIO
TITLE "Victims Of Circumstance"
PERFORMER "Lion"
INDEX 00 18:03:62
INDEX 01 18:05:00
TRACK 06 AUDIO
TITLE "Stranger In The City"
PERFORMER "Lion"
INDEX 00 21:54:67
INDEX 01 21:57:05
TRACK 07 AUDIO
TITLE "Hungry For Love"
PERFORMER "Lion"
INDEX 00 27:16:02
INDEX 01 27:17:17
TRACK 08 AUDIO
TITLE "Hold On"
PERFORMER "Lion"
INDEX 00 31:42:22
INDEX 01 31:43:32
TRACK 09 AUDIO
TITLE "Lonely Girl"
PERFORMER "Lion"
INDEX 00 35:47:40
INDEX 01 35:48:22
TRACK 10 AUDIO
TITLE "Forgotten Sons"
PERFORMER "Lion"
INDEX 01 37:30:37

_________________


Top
 Profile E-mail  
 
 
PostPosted: 13 Oct 2017 
Хиппей (support team)
User avatar
Joined: 30 Jul 2007
Posts: 97018
Lоcаtion: Киев (Kyiv, UA)
Age: 44
Name: Andrey
В общем, ещё один сложнейший запрос на форуме выполнен :kro:
Всем спасибо за участие :thanx:

_________________


Top
 Profile E-mail  
 
Display posts from previous:  Sort by  
Post new topic Reply to topic  [ 15 posts ] 

All times are UTC + 3 hours


Who is online

Users browsing this forum: No registered users and 4 guests


You cannot post new topics in this forum
You cannot reply to topics in this forum
You cannot edit your posts in this forum
You cannot delete your posts in this forum
You cannot post attachments in this forum

Search for:
Яндекс.Метрика
Powered by phpBB © 2000, 2002, 2005, 2007 phpBB Group