\m/ 80's metal \m/

Информационно-аналитический форум "80 см пыли" (In Search We Trust) "У нас никто никуда не спешит"
Железнодорожная биржа - RailAgent
It is currently 26 Apr 2017

All times are UTC + 3 hours

Spoiler
Chat - temporary registration for foreign users (please leave your application here)





Forum rules


Correctly issued inquiry should be as muсh as possible clear and look like as follows: We write a group name In the topic name, style and its location: an example: [reqs] Slayer - [US, California] - Thrash Metal – a prefix presence in the name of the theme is obligatory.
It is necessary to list the following things: which album and track-list we are searching for, what quality will suit (probably you are looking for an original record or the Japanese, American/Russian reedition?), we insert the picture (to 300х300 px), we copy track-list (the edition you are searching for!). It will be useful if you point out some information about the group and quality of a required product (a size, bitrate). Before the inquiry have a forum search.php

Example: viewtopic.php?f=205&t=10187

Правильно оформленный запрос должен быть максимально понятен и выглядеть так:
В названии топика пишем имя группы, стиль и её месторасположение (пример: [reqs] Slayer - [US, California] - Thrash Metal).
Внутри поста необходимо перечислить, какие именно релизы ищем, в каком формате устроит, обязательно указываем трэк-листы (возможно вы хотите оригинальную запись или японское, американское/российское переиздание?), вставляем минимальные картинки (до 300х300 px). Также не помешают несколько слов о самой группе.
Перед запросом, чтобы не попасть в неловкое положение, юзаем поиск по форуму search.php

Если вы мало что поняли из прочтённого, смотрим пример грамотного запроса: viewtopic.php?f=205&t=10187
Сообщения размещаем только в раздел "Лося не видели?".
Самих лосей постим и красиво оформляем в "Лосиной бухте" - viewforum.php?f=31

Важные ссылки и дополнения к правилам раздела:
Убедительная просьба. Создавайте запросы правильно.
viewtopic.php?f=113&t=1802
Прежде чем запрашивать альбом, спросите его у Google
viewtopic.php?f=113&t=2696
Что вас может ожидать в случае несоблюдения правил:
viewtopic.php?t=3792


Приятного общения на нашем форуме и удачи в охоте на "металлических животных" :dance:

Image

Заказывать альбомы 2015/2016 г запрещено!
Don't Request Releases from 2015/2016 Please!!!



Post new topic Reply to topic  [ 28 posts ]  Go to page Previous  1, 2
Author Message
 
PostPosted: 28 Nov 2016 
Хиппей (support team)
User avatar
Joined: 30 Jul 2007
Posts: 88751
Lоcаtion: Киев (Kyiv, UA)
Age: 43
Name: Andrey
И шо в итоге - стыбрыли весь оставшийся кабель? :kro:

_________________


Top
 Profile E-mail  
 
 
PostPosted: 28 Nov 2016 
консэрваторъ
User avatar
Joined: 11 Aug 2007
Posts: 13019
Lоcаtion: Псков
Age: 43
Name: Сергей
Смуфтили на днях после докладу Путину в эфире 1-ого канала...

_________________
THRASH 'EM ALL


Top
 Profile E-mail  
 
 
PostPosted: 28 Nov 2016 
Хиппей (support team)
User avatar
Joined: 30 Jul 2007
Posts: 88751
Lоcаtion: Киев (Kyiv, UA)
Age: 43
Name: Andrey
Ну вот, зато к президенту скатались не зря :kro:

_________________


Top
 Profile E-mail  
 
 
PostPosted: 29 Nov 2016 
Хиппей (support team)
User avatar
Joined: 30 Jul 2007
Posts: 88751
Lоcаtion: Киев (Kyiv, UA)
Age: 43
Name: Andrey
Темы была только что разделена на две :arrow: viewtopic.php?f=186&t=13819
С президентами не советовались :kro:

_________________


Top
 Profile E-mail  
 
 
PostPosted: 08 Mar 2017 
Студентег
User avatar
Joined: 28 Aug 2007
Posts: 4753
Lоcаtion: г. Москва
Age: 28
Name: Дима
Image
Label: Independent
Genre: Thrash Metal
Country: Switzerland
Format: Flac + Log + Cue + Covers
Size: 424 Mb

Line-Up:
Tom Höpfner - Bass (ex-Morbus Wilson)
Stefan Emmenegger - Drums (ex-Morbus Wilson)
Alexander Lorenz - Guitars (ex-Morbus Wilson)
Zeno Pfister - Vocals (ex-Morbus Wilson)


Tracklist:
1. The Likelihood of Making Errors 01:55
2. What Will Remain When We are Gone 04:03
3. Erased by Consciousness 05:17
4. Swallow 05:09
5. Burn Inside 03:41
6. Rise Up 04:41
7. Lost in the Void 05:11
8. Drown Myself 05:35
9. Killing Gods 03:49
10. Out in the Cold 04:17
11. Ashes to Ashes 04:07
12. Something Will (Get You in the End) 06:23

LOG
Exact Audio Copy V0.99 prebeta 5 from 4. May 2009

EAC extraction logfile from 26. February 2017, 15:54

23rd Grade Of Evil / What Will Remain When We Are Gone

Used drive : PIONEER DVD-RW DVR-221 Adapter: 2 ID: 1

Read mode : Secure
Utilize accurate stream : Yes
Defeat audio cache : Yes
Make use of C2 pointers : No

Read offset correction : 6
Overread into Lead-In and Lead-Out : No
Fill up missing offset samples with silence : Yes
Delete leading and trailing silent blocks : No
Null samples used in CRC calculations : Yes
Used interface : Native Win32 interface for Win NT & 2000

Used output format : User Defined Encoder
Selected bitrate : 32 kBit/s
Quality : High
Add ID3 tag : No
Command line compressor : C:\Program Files\Exact Audio Copy\Flac\flac.exe
Additional command line options : -6 -V %s


TOC of the extracted CD

Track | Start | Length | Start sector | End sector
---------------------------------------------------------
1 | 0:00.00 | 1:55.34 | 0 | 8658
2 | 1:55.34 | 4:03.13 | 8659 | 26896
3 | 5:58.47 | 5:17.49 | 26897 | 50720
4 | 11:16.21 | 5:09.10 | 50721 | 73905
5 | 16:25.31 | 3:41.34 | 73906 | 90514
6 | 20:06.65 | 4:41.34 | 90515 | 111623
7 | 24:48.24 | 5:10.73 | 111624 | 134946
8 | 29:59.22 | 5:35.37 | 134947 | 160108
9 | 35:34.59 | 3:49.50 | 160109 | 177333
10 | 39:24.34 | 4:17.21 | 177334 | 196629
11 | 43:41.55 | 4:07.00 | 196630 | 215154
12 | 47:48.55 | 6:22.71 | 215155 | 243875


Range status and errors

Selected range

Filename D:\Музыка\Lossless\23rd Grade Of Evil - What Will Remain When We Are Gone (2009\23rd Grade Of Evil - What Will Remain When We Are Gone.wav

Peak level 96.4 %
Range quality 100.0 %
Copy CRC CFE39A34
Copy OK

No errors occurred


AccurateRip summary

Track 1 not present in database
Track 2 not present in database
Track 3 not present in database
Track 4 not present in database
Track 5 not present in database
Track 6 not present in database
Track 7 not present in database
Track 8 not present in database
Track 9 not present in database
Track 10 not present in database
Track 11 not present in database
Track 12 not present in database

None of the tracks are present in the AccurateRip database

End of status report

CUE
REM GENRE "Thrash Metal"
REM DATE 2009
REM DISCID 9F0CB30C
REM COMMENT "ExactAudioCopy v0.99pb5"
PERFORMER "23rd Grade Of Evil"
TITLE "What Will Remain When We Are Gone "
FILE "23rd Grade Of Evil - What Will Remain When We Are Gone.flac" WAVE
TRACK 01 AUDIO
TITLE "The Likelihood Of Making Errors"
PERFORMER "23rd Grade Of Evil"
FLAGS DCP
INDEX 01 00:00:00
TRACK 02 AUDIO
TITLE "What Will Remain When We Are Gone"
PERFORMER "23rd Grade Of Evil"
FLAGS DCP
INDEX 01 01:55:34
TRACK 03 AUDIO
TITLE "Erased By Consciousness"
PERFORMER "23rd Grade Of Evil"
FLAGS DCP
INDEX 01 05:58:47
TRACK 04 AUDIO
TITLE "Swallow"
PERFORMER "23rd Grade Of Evil"
FLAGS DCP
INDEX 01 11:16:21
TRACK 05 AUDIO
TITLE "Burn Inside"
PERFORMER "23rd Grade Of Evil"
FLAGS DCP
INDEX 01 16:25:31
TRACK 06 AUDIO
TITLE "Rise Up"
PERFORMER "23rd Grade Of Evil"
FLAGS DCP
INDEX 01 20:06:65
TRACK 07 AUDIO
TITLE "Lost In The Void"
PERFORMER "23rd Grade Of Evil"
FLAGS DCP
INDEX 01 24:48:24
TRACK 08 AUDIO
TITLE "Drown Myself"
PERFORMER "23rd Grade Of Evil"
FLAGS DCP
INDEX 01 29:59:22
TRACK 09 AUDIO
TITLE "Killing Gods"
PERFORMER "23rd Grade Of Evil"
FLAGS DCP
INDEX 01 35:34:59
TRACK 10 AUDIO
TITLE "Out In The Cold"
PERFORMER "23rd Grade Of Evil"
FLAGS DCP
INDEX 01 39:24:34
TRACK 11 AUDIO
TITLE "Ashes To Ashes"
PERFORMER "23rd Grade Of Evil"
FLAGS DCP
INDEX 01 43:41:55
TRACK 12 AUDIO
TITLE "Something Will (Get You In The End)"
PERFORMER "23rd Grade Of Evil"
FLAGS DCP
INDEX 01 47:48:55


Yadi

Как по мне так отличный альбом! :true:


Top
 Profile E-mail  
 
 
PostPosted: 08 Mar 2017 
Прокъмитолист
User avatar
Joined: 12 Aug 2007
Posts: 5926
Lоcаtion: Санктъ-Петербуркъ
Age: 49
Name: Олекъ
:thanx:

_________________
прокъметол - это музыко, от которово есть прок (ы)


Top
 Profile  
 
 
PostPosted: 09 Mar 2017 
консэрваторъ
User avatar
Joined: 11 Aug 2007
Posts: 13019
Lоcаtion: Псков
Age: 43
Name: Сергей
А этот лось Bad Men Do What Good Men Dream 2012 везде есть наверное, да?.. :scratch:

23rd Grade of Evil - Take My Life (2012) | +

ЧилдренОфБодун напомнили...

_________________
THRASH 'EM ALL


Top
 Profile E-mail  
 
 
PostPosted: 16 Apr 2017 
Студентег
User avatar
Joined: 28 Aug 2007
Posts: 4753
Lоcаtion: г. Москва
Age: 28
Name: Дима
Не искал второй альбом. По этой песне он значительно мелодичнее и менее трэшевый, чем дебютник.


Top
 Profile E-mail  
 
Display posts from previous:  Sort by  
Post new topic Reply to topic  [ 28 posts ]  Go to page Previous  1, 2

All times are UTC + 3 hours


Who is online

Users browsing this forum: Schmelzer and 4 guests


You cannot post new topics in this forum
You cannot reply to topics in this forum
You cannot edit your posts in this forum
You cannot delete your posts in this forum
You cannot post attachments in this forum

Search for:
Яндекс.Метрика
Powered by phpBB © 2000, 2002, 2005, 2007 phpBB Group