\m/ 80's metal \m/

Информационно-аналитический форум "80 см пыли" (In Search We Trust) "У нас никто никуда не спешит"
Железнодорожная биржа - RailAgent
It is currently 18 Aug 2017

All times are UTC + 3 hours

Spoiler
Chat - temporary registration for foreign users (please leave your application here)





Forum rules


Correctly issued inquiry should be as muсh as possible clear and look like as follows: We write a group name In the topic name, style and its location: an example: [reqs] Slayer - [US, California] - Thrash Metal – a prefix presence in the name of the theme is obligatory.
It is necessary to list the following things: which album and track-list we are searching for, what quality will suit (probably you are looking for an original record or the Japanese, American/Russian reedition?), we insert the picture (to 300х300 px), we copy track-list (the edition you are searching for!). It will be useful if you point out some information about the group and quality of a required product (a size, bitrate). Before the inquiry have a forum search.php

Example: viewtopic.php?f=205&t=10187

Правильно оформленный запрос должен быть максимально понятен и выглядеть так:
В названии топика пишем имя группы, стиль и её месторасположение (пример: [reqs] Slayer - [US, California] - Thrash Metal).
Внутри поста необходимо перечислить, какие именно релизы ищем, в каком формате устроит, обязательно указываем трэк-листы (возможно вы хотите оригинальную запись или японское, американское/российское переиздание?), вставляем минимальные картинки (до 300х300 px). Также не помешают несколько слов о самой группе.
Перед запросом, чтобы не попасть в неловкое положение, юзаем поиск по форуму search.php

Если вы мало что поняли из прочтённого, смотрим пример грамотного запроса: viewtopic.php?f=205&t=10187
Сообщения размещаем только в раздел "Лося не видели?".
Самих лосей постим и красиво оформляем в "Лосиной бухте" - viewforum.php?f=31

Важные ссылки и дополнения к правилам раздела:
Убедительная просьба. Создавайте запросы правильно.
viewtopic.php?f=113&t=1802
Прежде чем запрашивать альбом, спросите его у Google
viewtopic.php?f=113&t=2696
Что вас может ожидать в случае несоблюдения правил:
viewtopic.php?t=3792


Приятного общения на нашем форуме и удачи в охоте на "металлических животных" :dance:

Image

Заказывать альбомы 2015/2016 г запрещено!
Don't Request Releases from 2015/2016 Please!!!



Post new topic Reply to topic  [ 13 posts ] 
Author Message
 
PostPosted: 23 Apr 2010 
Пионэръ
Joined: 23 Aug 2008
Posts: 33
Lоcаtion: Slovakia
Age: 53
Name: Rudolf
here is topic http://80s.takemetal.com/viewtopic.php?t=597 and info about this album.
But now is founding loss.
Thanks in advance.

Sacrilege B.C. - Too Cool To Pray (88)
Genre: Thrash Metal

Tracklist:
1. Cold
2. Where Are We Going
3. Snake Pit
4. Between
5. Revenge
6. Party With God
7. Ripping Apart
8. Silence Screams
9. Too Cool to Pray
10. Mistake
11. Feed Off Me
12. Front Seat Funky


Top
 Profile  
 
 
PostPosted: 21 May 2010 
А может смените мне статус?..
User avatar
Joined: 17 Jan 2008
Posts: 806
Lоcаtion: Пенза
Age: 39
Name: Денис
Кстати этот диск переиздавли в 2009-ом лимитированным тиражом на MAGIC CLOVER RECORDS..Без
бонусов,но все же....Может и всплывёт....

http://cgi.ebay.com.au/ws/eBayISAPI.dll ... 0575332098


Top
 Profile  
 
 
PostPosted: 10 Sep 2013 
Трешер
User avatar
Joined: 25 Feb 2011
Posts: 985
Lоcаtion: Харьков
Age: 40
Name: Aleksandr
Тоже хочу в лосе! :true:


Top
 Profile E-mail  
 
 
PostPosted: 10 Sep 2013 
Труъ
User avatar
Joined: 27 Feb 2009
Posts: 184
Lоcаtion: Питер
Age: 50
Name: Олег
Качал лосей вот отсюда
http://churchofzer.blogspot.ru/search/l ... ilege%20BC

Правда лоси не полноценные , без лога и куя , просто набор вавок , сканов тоже нет . :benya:
Пароль на страничке в квадратных скобках , в данном случае crucified!


Last edited by vit111 on 10 Sep 2013, edited 1 time in total.

Top
 Profile  
 
 
PostPosted: 10 Sep 2013 
Трешер
User avatar
Joined: 25 Feb 2011
Posts: 985
Lоcаtion: Харьков
Age: 40
Name: Aleksandr
Залейте если у кого остались :thanx:


Top
 Profile E-mail  
 
 
PostPosted: 14 Mar 2017 
Трешер
User avatar
Joined: 25 Feb 2011
Posts: 985
Lоcаtion: Харьков
Age: 40
Name: Aleksandr
Я у себя на винте не обнаружил. :vic:


Top
 Profile E-mail  
 
 
PostPosted: 15 Mar 2017 
Хиппей (support team)
User avatar
Joined: 30 Jul 2007
Posts: 92219
Lоcаtion: Киев (Kyiv, UA)
Age: 44
Name: Andrey
https://rutracker.org/forum/search.php? ... lege%20B.C.

_________________


Top
 Profile E-mail  
 
 
PostPosted: 15 Mar 2017 
Хиппей (support team)
User avatar
Joined: 30 Jul 2007
Posts: 92219
Lоcаtion: Киев (Kyiv, UA)
Age: 44
Name: Andrey
Перезалью сюда хоть неремастированный вариант, а то всем насрать :kro:

Sacrilege B.C. - 1986 - Party With God [ape]

Image Image Image

mirror: Depos l Narod l M-Cloud

log
EAC extraction logfile from 14. November 2008, 21:48 for CD
Sacrilege, B.C. / Party WIth God

Used drive : HL-DT-STRW/DVD GCC-4244N Adapter: 1 ID: 0
Read mode : Secure with NO C2, accurate stream, disable cache
Read offset correction : 102
Overread into Lead-In and Lead-Out : No

Used output format : C:\Archivos de programa\Exact Audio Copy\MAC.EXE (Monkey's Audio Lossless Encoder)
High Lossless Compression

Other options :
Fill up missing offset samples with silence : Yes
Delete leading and trailing silent blocks : No
Installed external ASPI interface


Range status and errors
Selected range
Filename C:\METALMADNESS\SACRILEGE B.C\SACRILEGEBC-PARTY WITH GOD.wav

Peak level 100.0 %
Range quality 100.0 %
CRC 6FA42C90
Copy OK

No errors occured

End of status report

cue
PERFORMER "Sacrilege, B.C."
TITLE "Party WIth God"
FILE "SACRILEGEBC-PARTY WITH GOD.ape" WAVE
TRACK 01 AUDIO
TITLE "Azmeroth"
PERFORMER "Sacrilege, B.C."
INDEX 01 00:00:00
TRACK 02 AUDIO
TITLE "Crucified"
PERFORMER "Sacrilege, B.C."
INDEX 00 01:55:54
INDEX 01 01:57:42
TRACK 03 AUDIO
TITLE "Fun With Napalm"
PERFORMER "Sacrilege, B.C."
INDEX 00 05:05:12
INDEX 01 05:06:72
TRACK 04 AUDIO
TITLE "Born Of Hell"
PERFORMER "Sacrilege, B.C."
INDEX 00 08:23:72
INDEX 01 08:25:65
TRACK 05 AUDIO
TITLE "Words Of God"
PERFORMER "Sacrilege, B.C."
INDEX 00 11:18:71
INDEX 01 11:20:64
TRACK 06 AUDIO
TITLE "Time To Die"
PERFORMER "Sacrilege, B.C."
INDEX 00 14:16:54
INDEX 01 14:18:39
TRACK 07 AUDIO
TITLE "Victimized"
PERFORMER "Sacrilege, B.C."
INDEX 00 18:00:70
INDEX 01 18:02:60
TRACK 08 AUDIO
TITLE "Cancer"
PERFORMER "Sacrilege, B.C."
INDEX 00 20:56:53
INDEX 01 20:58:34
TRACK 09 AUDIO
TITLE "Judge Death"
PERFORMER "Sacrilege, B.C."
INDEX 00 23:30:65
INDEX 01 23:32:51
TRACK 10 AUDIO
TITLE "Death Toll"
PERFORMER "Sacrilege, B.C."
INDEX 00 25:28:26
INDEX 01 25:30:10
TRACK 11 AUDIO
TITLE "Final Rites"
PERFORMER "Sacrilege, B.C."
INDEX 00 27:29:73
INDEX 01 27:31:61
TRACK 12 AUDIO
TITLE "Slaughterhouse"
PERFORMER "Sacrilege, B.C."
INDEX 00 30:34:67
INDEX 01 30:36:51
TRACK 13 AUDIO
TITLE "Skinned Alive"
PERFORMER "Sacrilege, B.C."
INDEX 00 32:52:69
INDEX 01 32:54:45



Image Image

_________________


Top
 Profile E-mail  
 
 
PostPosted: 15 Mar 2017 
Хиппей (support team)
User avatar
Joined: 30 Jul 2007
Posts: 92219
Lоcаtion: Киев (Kyiv, UA)
Age: 44
Name: Andrey
Кстати, а чего там ремастрировать то было? Звук, как для хардкора на перворпессе просто улётный :meloman:

_________________


Top
 Profile E-mail  
 
 
PostPosted: 15 Mar 2017 
Хиппей (support team)
User avatar
Joined: 30 Jul 2007
Posts: 92219
Lоcаtion: Киев (Kyiv, UA)
Age: 44
Name: Andrey
Scatterbrain wrote:
Sacrilege B.C. - 1986 - Party With God [ape]

Хм, рип со звуком запиленного винила :pardon:

_________________


Top
 Profile E-mail  
 
 
PostPosted: 16 Mar 2017 
Генеральный thrasher
User avatar
Joined: 03 Oct 2008
Posts: 3094
Lоcаtion: Ханты-Мансийский АО
Age: 42
Name: Сергей
Я у себя на винте не обнаружил. :vic:


Саш,я поискал но не нашёл то,что ты просил.Видимо рип остался на сдохшем системнике.

Качал лосей вот отсюда
http://churchofzer.blogspot.ru/search/l ... ilege%20BC
Правда лоси не полноценные , без лога и куя , просто набор вавок , сканов тоже нет .


Остались только эти к сожалению!


Top
 Profile  
 
 
PostPosted: 21 Mar 2017 
Трешер
User avatar
Joined: 25 Feb 2011
Posts: 985
Lоcаtion: Харьков
Age: 40
Name: Aleksandr
Я нашел оба на старом компе. Закину но сканов там нет.


Top
 Profile E-mail  
 
 
PostPosted: 21 Mar 2017 
Хиппей (support team)
User avatar
Joined: 30 Jul 2007
Posts: 92219
Lоcаtion: Киев (Kyiv, UA)
Age: 44
Name: Andrey
О, заранее уря :kro:

_________________


Top
 Profile E-mail  
 
Display posts from previous:  Sort by  
Post new topic Reply to topic  [ 13 posts ] 

All times are UTC + 3 hours


Who is online

Users browsing this forum: No registered users and 2 guests


You cannot post new topics in this forum
You cannot reply to topics in this forum
You cannot edit your posts in this forum
You cannot delete your posts in this forum
You cannot post attachments in this forum

Search for:
Яндекс.Метрика
Powered by phpBB © 2000, 2002, 2005, 2007 phpBB Group