\m/ 80's metal \m/

Информационно-аналитический форум "80 см пыли" (In Search We Trust) "У нас никто никуда не спешит"
Me For You - http://me-4u.com
It is currently 28 Jul 2021

All times are UTC + 3 hours

Spoiler
Chat - temporary registration for foreign users (please leave your application here)







Post new topic Reply to topic  [ 46 posts ]  Go to page Previous  1, 2, 3  Next
Author Message
 
PostPosted: 04 Mar 2009 
Thrasher
User avatar
Joined: 07 Oct 2007
Posts: 2782
Lоcаtion: Russia, Moscow
Age: 37
Name: Drunk & Evil
EG Power

о плиа, единственая банда из залитых которую не удосужился послушать :dash: ибо:

spiralarch wrote:
не та команда :pardon:

_________________
ВОДКА, БАБЫ И БЛЮЗ / 40° till death... :bodun:
One time we saw some hookers, but when we got closer, we realised it was Mötley Crüe. ©


Top
 Profile  
 
 
PostPosted: 04 Mar 2009 
Power Metal Maniac
User avatar
Joined: 09 Aug 2008
Posts: 7459
Lоcаtion: Москва
Age: 43
Name: Егор
Ну для меня тоже далеко не первоочередной важности команда, просто собирался на CD-R записать и вот обнаружил...

_________________
Long Live Metal!


Top
 Profile  
 
 
PostPosted: 04 Mar 2009 
Old Time Rock`n`Roll
User avatar
Joined: 23 Jun 2008
Posts: 3617
Lоcаtion: г.Ульяновск
Age: 42
Name: Константин
Если не сложно, может кто-нибудь переведет в 320 и зальет
Saigon-85
Midnight Darkness – 85
X-Caliber-86
Dark Wizard - 84 и 85


Top
 Profile  
 
 
PostPosted: 04 Mar 2009 
Thrasher
User avatar
Joined: 07 Oct 2007
Posts: 2782
Lоcаtion: Russia, Moscow
Age: 37
Name: Drunk & Evil
oldrocker

я всё удалил, отсюда кстати и появился этот пост :fingal:

_________________
ВОДКА, БАБЫ И БЛЮЗ / 40° till death... :bodun:
One time we saw some hookers, but when we got closer, we realised it was Mötley Crüe. ©


Top
 Profile  
 
 
PostPosted: 04 Mar 2009 
Old Time Rock`n`Roll
User avatar
Joined: 23 Jun 2008
Posts: 3617
Lоcаtion: г.Ульяновск
Age: 42
Name: Константин
-=KazgorotH=-
Оригинально))
С глаз долой - из винчестера вон))


Top
 Profile  
 
 
PostPosted: 04 Mar 2009 
Хиппей (support team)
User avatar
Joined: 30 Jul 2007
Posts: 122183
Lоcаtion: Киев (Kyiv, UA)
Age: 48
Name: Andrey
Постепенно, очень постепенно всё скачаю и по желанию презалью в мп3 :oops:


Top
 Profile E-mail  
 
 
PostPosted: 04 Mar 2009 
Old Time Rock`n`Roll
User avatar
Joined: 23 Jun 2008
Posts: 3617
Lоcаtion: г.Ульяновск
Age: 42
Name: Константин
Scatterbrain wrote:
Постепенно, очень постепенно

Спасибо. Скажи прямо - "не далее как в следующей жизни" ))


Top
 Profile  
 
 
PostPosted: 06 Mar 2009 
Анатолий
User avatar
Joined: 18 Oct 2008
Posts: 4158
Lоcаtion: Армавир
Age: 44
Name: Анатолий
О-о, а Dark Wizard отменная штуковина! Далеко не мейстрим тех лет! Парни не прочь играть разнообразно. Вокал... ну тут можно было бы конечно обойтись и без визгов, но всё равно - очень!

-=KazgorotH=-

Ещё раз спасибо! :thanx:


Top
 Profile E-mail  
 
 
PostPosted: 07 Mar 2009 
Анатолий
User avatar
Joined: 18 Oct 2008
Posts: 4158
Lоcаtion: Армавир
Age: 44
Name: Анатолий
Эх... Iron Cross не в порядке... 13 трек начиная с 1:59...

Может к кого есть другой экземпляр?


Top
 Profile E-mail  
 
 
PostPosted: 07 Mar 2009 
Хиппей (support team)
User avatar
Joined: 30 Jul 2007
Posts: 122183
Lоcаtion: Киев (Kyiv, UA)
Age: 48
Name: Andrey
Второй пошёл... :oops:


Top
 Profile E-mail  
 
 
PostPosted: 07 Mar 2009 
семерых одним ударом
Joined: 18 Aug 2007
Posts: 4714
Lоcаtion: Владивосток
Age: 46
Name: Николай Николаевич
спасибо, клевая подборка


Top
 Profile  
 
 
PostPosted: 07 Mar 2009 
Power Metal Maniac
User avatar
Joined: 09 Aug 2008
Posts: 7459
Lоcаtion: Москва
Age: 43
Name: Егор
Кстати, Dark Wizard - не мой ли релиз, который я тут пару месяцев назад выкладывал? :roll:

_________________
Long Live Metal!


Top
 Profile  
 
 
PostPosted: 07 Mar 2009 
труъ антисионист
User avatar
Joined: 01 Aug 2007
Posts: 4544
Lоcаtion: Откуда и большинство из нас
Age: 40
Name: Дядя Вова
EG Power
Наверно твой )))

_________________
Image
Image


Top
 Profile  
 
 
PostPosted: 07 Mar 2009 
Труъ
User avatar
Joined: 15 Dec 2008
Posts: 131
Lоcаtion: Донбасс
Age: 48
Name: Евгений
Спасибо! Кое-что заберу :dance:


Top
 Profile  
 
 
PostPosted: 08 Mar 2009 
Зарегился вот...
User avatar
Joined: 07 Mar 2009
Posts: 4
Age: 47
Name: .
У, блин, спасибо. Найти б ещё время всё прослушать...


Top
 Profile  
 
 
PostPosted: 09 Mar 2009 
.
Joined: 01 Mar 2009
Posts: 168
Age: 39
Name: .
спасибо! Дофига такого, чего я даже не мечтал в лосях найти!


Top
 Profile  
 
 
PostPosted: 09 Mar 2009 
udo
User avatar
Joined: 01 Mar 2008
Posts: 2343
Lоcаtion: Краснодар
Age: 50
Name: РОМАН
Требую продолжение банкета :true: :true: :true:


Top
 Profile E-mail  
 
 
PostPosted: 18 Mar 2009 
.
Joined: 01 Mar 2009
Posts: 168
Age: 39
Name: .
ребят. кто Axe Witch - Lord Of The Flies качал? Помогите куй исправить, а то он чего-то не того... не фурычит у меня


Top
 Profile  
 
 
PostPosted: 18 Mar 2009 
труъ антисионист
User avatar
Joined: 01 Aug 2007
Posts: 4544
Lоcаtion: Откуда и большинство из нас
Age: 40
Name: Дядя Вова
Headbanger
Вот рабочий куй.
Quote:
REM GENRE "Heavy Metal"
REM DATE 1983
REM DISCID 2E124112
REM COMMENT "ExactAudioCopy v0.95b4"
PERFORMER "Axewitch"
TITLE "The Lord Of Flies"
FILE "Axewitch - The Lord Of Flies.flac" WAVE
TRACK 01 AUDIO
TITLE "Axe Victim"
PERFORMER "Axewitch"
INDEX 01 00:00:00
TRACK 02 AUDIO
TITLE "Just Another Lunatic"
PERFORMER "Axewitch"
INDEX 00 04:49:11
INDEX 01 04:51:11
TRACK 03 AUDIO
TITLE "High Power"
PERFORMER "Axewitch"
INDEX 00 09:05:48
INDEX 01 09:07:48
TRACK 04 AUDIO
TITLE "Let The Strings Cry Out"
PERFORMER "Axewitch"
INDEX 00 14:52:21
INDEX 01 14:54:21
TRACK 05 AUDIO
TITLE "Sinner"
PERFORMER "Axewitch"
INDEX 00 16:20:13
INDEX 01 16:22:13
TRACK 06 AUDIO
TITLE "The Arrival Of The Flies (Part I)"
PERFORMER "Axewitch"
INDEX 00 21:00:59
INDEX 01 21:02:59
TRACK 07 AUDIO
TITLE "The Lord Of Flies"
PERFORMER "Axewitch"
INDEX 00 23:10:59
INDEX 01 23:12:59
TRACK 08 AUDIO
TITLE "Down Town"
PERFORMER "Axewitch"
INDEX 00 29:12:42
INDEX 01 29:14:42
TRACK 09 AUDIO
TITLE "Seven Angels"
PERFORMER "Axewitch"
INDEX 00 34:09:57
INDEX 01 34:11:57
TRACK 10 AUDIO
TITLE "Rock This House Down (Live 1985)"
PERFORMER "Axewitch"
INDEX 00 38:45:03
INDEX 01 38:47:03
TRACK 11 AUDIO
TITLE "Tracks Of Blood (Live 1985)"
PERFORMER "Axewitch"
INDEX 00 43:01:17
INDEX 01 43:03:17
TRACK 12 AUDIO
TITLE "Love Can't Take It Away (Live 1986)"
PERFORMER "Axewitch"
INDEX 00 48:35:71
INDEX 01 48:37:71
TRACK 13 AUDIO
TITLE "Skull In The Mirror (Live 1986)"
PERFORMER "Axewitch"
INDEX 00 52:59:20
INDEX 01 53:01:20
TRACK 14 AUDIO
TITLE "Queen Of hearts (Live 1986)"
PERFORMER "Axewitch"
INDEX 00 57:13:38
INDEX 01 57:15:38
TRACK 15 AUDIO
TITLE "Mary's Out Again (Live 1986)"
PERFORMER "Axewitch"
INDEX 00 62:14:51
INDEX 01 62:16:51
TRACK 16 AUDIO
TITLE "World Of Illusions (Live 1986)"
PERFORMER "Axewitch"
INDEX 00 66:18:06
INDEX 01 66:20:06
TRACK 17 AUDIO
TITLE "Get Out (Live 1986)"
PERFORMER "Axewitch"
INDEX 00 70:44:42
INDEX 01 70:46:42
TRACK 18 AUDIO
TITLE "Deep Cuts The Knife (Live 1986)"
PERFORMER "Axewitch"
INDEX 00 73:58:16
INDEX 01 74:00:16

_________________
Image
Image


Top
 Profile  
 
 
PostPosted: 18 Mar 2009 
.
Joined: 01 Mar 2009
Posts: 168
Age: 39
Name: .
странно, у меня даже с этим куем ни куя не выходит - пишет "The File not support in line 7"


Top
 Profile  
 
Display posts from previous:  Sort by  
Post new topic Reply to topic  [ 46 posts ]  Go to page Previous  1, 2, 3  Next

All times are UTC + 3 hours


Who is online

Users browsing this forum: No registered users and 1 guest


You cannot post new topics in this forum
You cannot reply to topics in this forum
You cannot edit your posts in this forum
You cannot delete your posts in this forum
You cannot post attachments in this forum

Search for:
Яндекс.Метрика
Powered by phpBB © 2000, 2002, 2005, 2007 phpBB Group