\m/ 80's metal \m/

Информационно-аналитический форум "80 см пыли" (In Search We Trust) "У нас никто никуда не спешит"
Железнодорожная биржа - RailAgent
It is currently 22 May 2018

All times are UTC + 3 hours

Spoiler
Chat - temporary registration for foreign users (please leave your application here)







Post new topic Reply to topic  [ 9 posts ] 
Author Message
 
PostPosted: 07 Oct 2009 
Генеральный thrasher
User avatar
Joined: 03 Oct 2008
Posts: 3394
Lоcаtion: Ханты-Мансийский АО
Age: 43
Name: Сергей
Image

Альбом: Учитель успеха
Год: 1988
Страна: Россия
Формат: Flac+Cue+Log (самодельные)
Размер: 199Mb
Источник: Мой винил

Tracklist:
1.Учитель успеха
2.Ливень
3.Чёрный ворон
4.Счастливый билет
5.Мир
6.Водопад
7.Творец и музыкант


Line-up:
Игорь Романов - гитара,вокал
Валерий Горшенников - вокал
Виктор Дробыш - клавишные
Олег Пичуркин - бас
Валерий Брусиловский - ударные

Cue
REM GENRE "Hard Rock"
REM DATE 1988
REM DISCID 5D096B07
REM COMMENT "ExactAudioCopy v0.99pb4"
PERFORMER "группа Игоря Романова"
TITLE "Учитель успеха"
FILE "группа Игоря Романова - Учитель успеха.flac" WAVE
TRACK 01 AUDIO
TITLE "Учитель успеха"
PERFORMER "группа Игоря Романова"
FLAGS DCP
INDEX 01 00:00:00
TRACK 02 AUDIO
TITLE "Ливень"
PERFORMER "группа Игоря Романова"
FLAGS DCP
INDEX 00 05:17:31
INDEX 01 05:19:24
TRACK 03 AUDIO
TITLE "Чёрный ворон"
PERFORMER "группа Игоря Романова"
FLAGS DCP
INDEX 00 13:25:68
INDEX 01 13:27:62
TRACK 04 AUDIO
TITLE "Счастливый билет"
PERFORMER "группа Игоря Романова"
FLAGS DCP
INDEX 00 20:30:46
INDEX 01 20:32:45
TRACK 05 AUDIO
TITLE "Мир"
PERFORMER "группа Игоря Романова"
FLAGS DCP
INDEX 00 24:46:00
INDEX 01 24:47:70
TRACK 06 AUDIO
TITLE "Водопад"
PERFORMER "группа Игоря Романова"
FLAGS DCP
INDEX 00 29:14:39
INDEX 01 29:16:39
TRACK 07 AUDIO
TITLE "Творец и музыкант"
PERFORMER "группа Игоря Романова"
FLAGS DCP
INDEX 00 34:14:11
INDEX 01 34:16:03


Log
Exact Audio Copy V0.99 prebeta 4 from 23. January 2008

Отчёт EAC об извлечении, выполненном 7. октября 2009, 9:28

группа Игоря Романова / Учитель успеха

Дисковод: ATAPI DVD A DH20A4P Adapter: 0 ID: 1

Режим чтения : Достоверность
Использование точного потока : Да
Отключение кэша аудио : Да
Использование указателей C2 : Нет

Коррекция смещения при чтении : 6
Способность читать области Lead-in и Lead-out : Нет
Заполнение пропущенных сэмплов тишиной : Да
Удаление блоков с тишиной в начале и конце : Нет
При вычислениях CRC использовались нулевые сэмплы : Нет
Интерфейс : Установленный внешний ASPI-интерфейс

Выходной формат : Пользовательский кодировщик
Выбранный битрейт : 768 kBit/s
Качество : Высокий
Добавление ID3-тэга : Нет
Утилита сжатия : C:\Program Files\Exact Audio Copy\FLAC\FLAC.EXE
Дополнительные параметры : -6 -V -T "ARTIST=%a" -T "TITLE=%t" -T "ALBUM=%g" -T "DATE=%y" -T "TRACKNUMBER=%n" -T "GENRE=%m" -T "COMMENT=%e" %s -o %d


TOC извлечённого CD

Трек | Старт | Длительность | Начальный сектор | Конечный сектор
---------------------------------------------------------------------
1 | 0:00.00 | 5:19.24 | 0 | 23948
2 | 5:19.24 | 8:08.38 | 23949 | 60586
3 | 13:27.62 | 7:04.58 | 60587 | 92444
4 | 20:32.45 | 4:15.25 | 92445 | 111594
5 | 24:47.70 | 4:28.44 | 111595 | 131738
6 | 29:16.39 | 4:59.39 | 131739 | 154202
7 | 34:16.03 | 5:54.72 | 154203 | 180824


Характеристики диапазона извлечения и сообщения об ошибках

Выбранный диапазон

Имя файла F:\Лоси\группа Игоря Романова - Учитель успеха.wav

Пиковый уровень 67.8 %
Качество диапазона 100.0 %
CRC копии F62F9B12
Копирование... OK

Ошибок не произошло


AccurateRip: сводка

Трек 1 нет в базе данных
Трек 2 нет в базе данных
Трек 3 нет в базе данных
Трек 4 нет в базе данных
Трек 5 нет в базе данных
Трек 6 нет в базе данных
Трек 7 нет в базе данных

Ни одного трека нет в базе AccurateRip

Конец отчёта


Megaupload


Top
 Profile  
 
 
PostPosted: 07 Oct 2009 
Генеральный thrasher
User avatar
Joined: 03 Oct 2008
Posts: 3394
Lоcаtion: Ханты-Мансийский АО
Age: 43
Name: Сергей
По просьбе German-а....Отличный альбом!


Top
 Profile  
 
 
PostPosted: 07 Oct 2009 
Дежурный по КУПу
User avatar
Joined: 17 Aug 2007
Posts: 5869
Age: 49
Name: Ге
Спасибо, Серег! :true:
Сейчас буду воевать с мегой :fingal:

_________________
http://jp-mania.ru/
http://jp-tourdates.ucoz.ru/


Top
 Profile  
 
 
PostPosted: 07 Oct 2009 
А может смените мне статус?..
Joined: 03 Jul 2009
Posts: 762
Lоcаtion: Serbia
Name: Laki
Thanks! Great upload


Top
 Profile E-mail  
 
 
PostPosted: 07 Oct 2009 
Хиппей (support team)
User avatar
Joined: 30 Jul 2007
Posts: 103505
Lоcаtion: Киев (Kyiv, UA)
Age: 44
Name: Andrey
Серёга, спасибо :thanx:

Narod

_________________


Top
 Profile E-mail  
 
 
PostPosted: 26 Dec 2011 
Пионэръ
Joined: 04 Oct 2009
Posts: 33
Name: Джузеппе
Ух, ты. "Учитель успеха" последний раз слышал в конце 80-х. Помню - понравилось.
Послушал сейчас - какая же мура. Да ещё совецкая ужасная грамзапись :cry:
Вспомнилось:
После концерта один оркестрант говорит другому:
- Ну что, теперь на грамзапись?
Идут в кафе.
- Танюша, налей нам по 100 грамм и запиши на меня.
А музыковеду по фамилии Людевиг я вообще не завидую. Много, вероятно, пришлось принять, дабы хоть 4 абзаца нацарапать о музыкальном жанре, с которым явно не в ладах. От рецензии повеяло и обаянием слова, и искромётным юмором, и блеском. :blum:
А ведь были же такие классические музыковеды, которых очень просили что-нибудь выжать для пластинки очередной "перспективной рок-группы", чтобы "сверху" дали добро на тираж. Сколько помню - всегда на каких-нибудь пластинках, типа "Красная площадь", "Тяжёлый день", "Чёрный кофе" и т.п. обязательно была уморительно-официальная, из однообразных штампов созданная, рецензия. А ведь как слушали тогда эти альбомы! Пока не было с чем сравнить...


Top
 Profile E-mail  
 
 
PostPosted: 26 Dec 2011 
Хиппей (support team)
User avatar
Joined: 30 Jul 2007
Posts: 103505
Lоcаtion: Киев (Kyiv, UA)
Age: 44
Name: Andrey
torelli wrote:
А ведь как слушали тогда эти альбомы! Пока не было с чем сравнить...

Да было с чем. Просто мы еще радовались тому, что понимаем, о чём поёт группа и самое главное - это ж НАШИ :crazy: :true:

Ну и время, как грицаа, лечит. Даже те альбомы, которые в 80-х шли на ура (из англоязычных групп), сегодня не всегда воспринимаются так же приятно, как тогда.

Свежий пример - Metal Priest. Ну вот никак не могу получить сейчас того удовольствия, какое было в конце 80-х, когда впервые их услышал... :cry:
Ага, обожрались мы количеством различной музыки :pardon:

_________________


Top
 Profile E-mail  
 
 
PostPosted: 26 Dec 2011 
udo
User avatar
Joined: 01 Mar 2008
Posts: 2343
Lоcаtion: Краснодар
Age: 47
Name: РОМАН
Scatterbrain wrote:
Ага, обожрались мы количеством различной музыки

а ты удали все с компа и начни собирать все заново


Top
 Profile E-mail  
 
 
PostPosted: 27 Dec 2011 
Хиппей (support team)
User avatar
Joined: 30 Jul 2007
Posts: 103505
Lоcаtion: Киев (Kyiv, UA)
Age: 44
Name: Andrey
odu wrote:
а ты удали все с компа и начни собирать все заново

Хм, а это идея :umnik:
Может и форум удалить и начать всё сначала? :vic:

_________________


Top
 Profile E-mail  
 
Display posts from previous:  Sort by  
Post new topic Reply to topic  [ 9 posts ] 

All times are UTC + 3 hours


Who is online

Users browsing this forum: No registered users and 1 guest


You cannot post new topics in this forum
You cannot reply to topics in this forum
You cannot edit your posts in this forum
You cannot delete your posts in this forum
You cannot post attachments in this forum

Search for:
Яндекс.Метрика
Powered by phpBB © 2000, 2002, 2005, 2007 phpBB Group