\m/ 80's metal \m/

Информационно-аналитический форум "80 см пыли" (In Search We Trust) "У нас никто никуда не спешит"
Me For You - http://me-4u.com
It is currently 21 Nov 2018

All times are UTC + 3 hours

Spoiler
Chat - temporary registration for foreign users (please leave your application here)







Post new topic Reply to topic  [ 9 posts ] 
Author Message
 
PostPosted: 03 Oct 2009 
Генеральный thrasher
User avatar
Joined: 03 Oct 2008
Posts: 3510
Lоcаtion: Ханты-Мансийский АО
Age: 43
Name: Сергей
Image

Год:1989(CD выпущен в1995)
Стиль:Hard Rock
Аудио:Flac+Cue+Log
Размер:347Mb
Источник:мой CD

Tracklist:
1. Осторожней, сталкер 07:19
2. Стрелы 07:01
3. Племена 05:30
4. Диктатор 05:33
5. Красный свет 05:18
6. Солдаты судьбы 05:51
7. Исповедь 05:58
8. All right 04:08
9. Hands off 04:36
10. Горение 02:23

Line-Up:
Игорь Романов - гитара
Валерий Гор - вокал
Виктор Дробыш - клавишные
Олег Пичуркин - бас
Константин Иванов - ударные

Cue
REM GENRE Rock
REM DATE 1995
REM DISCID 8F0C930A
REM COMMENT "ExactAudioCopy v0.99pb4"
PERFORMER "Игорь Романов и гр.Союз"
TITLE "Красный свет"
FILE "Игорь Романов - Красный свет.wav" WAVE
TRACK 01 AUDIO
TITLE "Осторожней, сталкер"
PERFORMER "Игорь Романов и гр.Союз"
INDEX 00 00:00:00
INDEX 01 00:00:20
TRACK 02 AUDIO
TITLE "Стрелы"
PERFORMER "Игорь Романов и гр.Союз"
INDEX 00 07:20:32
INDEX 01 07:20:37
TRACK 03 AUDIO
TITLE "Племена"
PERFORMER "Игорь Романов и гр.Союз"
INDEX 00 14:22:32
INDEX 01 14:22:37
TRACK 04 AUDIO
TITLE "Диктатор"
PERFORMER "Игорь Романов и гр.Союз"
INDEX 00 19:52:04
INDEX 01 19:52:07
TRACK 05 AUDIO
TITLE "Красный свет"
PERFORMER "Игорь Романов и гр.Союз"
INDEX 00 25:25:17
INDEX 01 25:25:22
TRACK 06 AUDIO
TITLE "Солдаты судьбы"
PERFORMER "Игорь Романов и гр.Союз"
INDEX 00 30:43:05
INDEX 01 30:43:07
TRACK 07 AUDIO
TITLE "Исповедь"
PERFORMER "Игорь Романов и гр.Союз"
INDEX 00 36:34:57
INDEX 01 36:34:60
TRACK 08 AUDIO
TITLE "All right"
PERFORMER "Игорь Романов и гр.Союз"
INDEX 00 42:32:72
INDEX 01 42:33:00
TRACK 09 AUDIO
TITLE "Hands off"
PERFORMER "Игорь Романов и гр.Союз"
INDEX 00 46:40:12
INDEX 01 46:40:15
TRACK 10 AUDIO
TITLE "Горение"
PERFORMER "Игорь Романов и гр.Союз"
INDEX 00 51:16:52
INDEX 01 51:16:55


Log
Exact Audio Copy V0.99 prebeta 4 from 23. January 2008

Отчёт EAC об извлечении, выполненном 3. октября 2009, 12:12

Игорь Романов и гр.Союз / Красный свет

Дисковод: ATAPI DVD A DH20A4P Adapter: 0 ID: 1

Режим чтения : Достоверность
Использование точного потока : Да
Отключение кэша аудио : Да
Использование указателей C2 : Нет

Коррекция смещения при чтении : 6
Способность читать области Lead-in и Lead-out : Нет
Заполнение пропущенных сэмплов тишиной : Да
Удаление блоков с тишиной в начале и конце : Нет
При вычислениях CRC использовались нулевые сэмплы : Нет
Интерфейс : Встроенный Win32-интерфейс для Win NT/2000

Выходной формат : Пользовательский кодировщик
Выбранный битрейт : 768 kBit/s
Качество : Высокий
Добавление ID3-тэга : Нет
Утилита сжатия : C:\Program Files\Exact Audio Copy\FLAC\FLAC.EXE
Дополнительные параметры : -6 -V -T "ARTIST=%a" -T "TITLE=%t" -T "ALBUM=%g" -T "DATE=%y" -T "TRACKNUMBER=%n" -T "GENRE=%m" -T "COMMENT=%e" %s -o %d


TOC извлечённого CD

Трек | Старт | Длительность | Начальный сектор | Конечный сектор
---------------------------------------------------------------------
1 | 0:00.20 | 7:20.17 | 20 | 33036
2 | 7:20.37 | 7:02.00 | 33037 | 64686
3 | 14:22.37 | 5:29.45 | 64687 | 89406
4 | 19:52.07 | 5:33.15 | 89407 | 114396
5 | 25:25.22 | 5:17.60 | 114397 | 138231
6 | 30:43.07 | 5:51.53 | 138232 | 164609
7 | 36:34.60 | 5:58.15 | 164610 | 191474
8 | 42:33.00 | 4:07.15 | 191475 | 210014
9 | 46:40.15 | 4:36.40 | 210015 | 230754
10 | 51:16.55 | 2:22.22 | 230755 | 241426


Характеристики диапазона извлечения и сообщения об ошибках

Выбранный диапазон

Имя файла F:\Лоси\Игорь Романов - Красный свет.wav

Пиковый уровень 99.9 %
Качество диапазона 99.9 %
CRC копии 1ECA0E29
Копирование... OK

Ошибок не произошло


AccurateRip: сводка

Трек 1 точное извлечение (доверие 1) [F8DCB5C1]
Трек 2 точное извлечение (доверие 1) [F97AE3B1]
Трек 3 точное извлечение (доверие 1) [5623F9C3]
Трек 4 точное извлечение (доверие 1) [6C71CA9B]
Трек 5 точное извлечение (доверие 1) [D499237C]
Трек 6 точное извлечение (доверие 1) [B2A974A8]
Трек 7 точное извлечение (доверие 1) [18578A36]
Трек 8 точное извлечение (доверие 1) [248CBC8D]
Трек 9 точное извлечение (доверие 1) [9EED66DC]
Трек 10 точное извлечение (доверие 1) [20C7CCD0]

Все треки извлечены точно


Megaupload


Top
 Profile  
 
 
PostPosted: 04 Oct 2009 
Хиппей (support team)
User avatar
Joined: 30 Jul 2007
Posts: 108243
Lоcаtion: Киев (Kyiv, UA)
Age: 45
Name: Andrey
:thanx:

_________________


Top
 Profile E-mail  
 
 
PostPosted: 04 Oct 2009 
Дежурный по КУПу
User avatar
Joined: 17 Aug 2007
Posts: 5869
Age: 50
Name: Ге
Спасибо!

_________________
http://jp-mania.ru/
http://jp-tourdates.ucoz.ru/


Top
 Profile  
 
 
PostPosted: 04 Oct 2009 
Дежурный по КУПу
User avatar
Joined: 17 Aug 2007
Posts: 5869
Age: 50
Name: Ге
Сергей, а обложки можешь сделать?

_________________
http://jp-mania.ru/
http://jp-tourdates.ucoz.ru/


Top
 Profile  
 
 
PostPosted: 05 Oct 2009 
Генеральный thrasher
User avatar
Joined: 03 Oct 2008
Posts: 3510
Lоcаtion: Ханты-Мансийский АО
Age: 43
Name: Сергей
German wrote:
Сергей, а обложки можешь сделать?


Да могу.Только они убогие...


Top
 Profile  
 
 
PostPosted: 05 Oct 2009 
Дежурный по КУПу
User avatar
Joined: 17 Aug 2007
Posts: 5869
Age: 50
Name: Ге
thorbeorn wrote:
Только они убогие...


:shok: это как это?

ЗЫ: Согласен на любые :oops:

_________________
http://jp-mania.ru/
http://jp-tourdates.ucoz.ru/


Top
 Profile  
 
 
PostPosted: 05 Oct 2009 
Генеральный thrasher
User avatar
Joined: 03 Oct 2008
Posts: 3510
Lоcаtion: Ханты-Мансийский АО
Age: 43
Name: Сергей
Завтра сделаю...Такой вопрос - есть в отличном состоянии "Учитель успеха" на LP.Собираюсь цифровать в wav...Нужно это кому-нибудь?


Top
 Profile  
 
 
PostPosted: 05 Oct 2009 
Дежурный по КУПу
User avatar
Joined: 17 Aug 2007
Posts: 5869
Age: 50
Name: Ге
Конечно нужно, клади :true: :true: :true:

_________________
http://jp-mania.ru/
http://jp-tourdates.ucoz.ru/


Top
 Profile  
 
 
PostPosted: 05 Oct 2009 
Генеральный thrasher
User avatar
Joined: 03 Oct 2008
Posts: 3510
Lоcаtion: Ханты-Мансийский АО
Age: 43
Name: Сергей
German wrote:
Конечно нужно, клади


Вот и ладушки...Завтра начну цифровать...


Top
 Profile  
 
Display posts from previous:  Sort by  
Post new topic Reply to topic  [ 9 posts ] 

All times are UTC + 3 hours


Who is online

Users browsing this forum: No registered users and 1 guest


You cannot post new topics in this forum
You cannot reply to topics in this forum
You cannot edit your posts in this forum
You cannot delete your posts in this forum
You cannot post attachments in this forum

Search for:
Яндекс.Метрика
Powered by phpBB © 2000, 2002, 2005, 2007 phpBB Group