\m/ 80's metal \m/

Информационно-аналитический форум "80 см пыли" (In Search We Trust) "У нас никто никуда не спешит"
Me For You - http://me-4u.com
It is currently 16 Nov 2018

All times are UTC + 3 hours

Spoiler
Chat - temporary registration for foreign users (please leave your application here)







Post new topic Reply to topic  [ 12 posts ] 
Author Message
 
PostPosted: 23 Jul 2008 
Хиппей (support team)
User avatar
Joined: 30 Jul 2007
Posts: 108066
Lоcаtion: Киев (Kyiv, UA)
Age: 45
Name: Andrey
Паранойя - 1994 - Месть зля [flac]

Image

Genre: Heavy/Thrash
Location: Russia, Moscow
Size: 238 Mb

    1. Повелитель снов - 04:47
    2. Месть зла - 03:55
    3. Слуги Дьявола - 03:45
    4. Мертвый марш - 03:35
    5. Царство мертвых теней - 03:34
    6. Гример из морга - 04:08
    7. Массовый психоз - 04:01
    8. Черный ворон - 05:37
    9. Адская тварь - 03:20

    TPT: 36:42

iFolder - pt1
iFolder - pt2
iFolder - pt3

by Cru, Ge & De

Original post


Top
 Profile E-mail  
 
 
PostPosted: 23 Jul 2008 
мелосмертхстер
User avatar
Joined: 11 Jul 2008
Posts: 1058
Lоcаtion: (Әлмәт/Самара)
Age: 42
Name: Rus†Ⓐm
По моему не плохой альбом , но небольшой уклон в сторону Judas priest прослушивается . Отдельно хочется выделить композицию Черный ворон этакий мини-шедевр , обалденный медляк . Жалко только что распались и больше нас ни чем не порадовали. :true:


Top
 Profile E-mail  
 
 
PostPosted: 23 Jul 2008 
труъ антисионист
User avatar
Joined: 01 Aug 2007
Posts: 4541
Lоcаtion: Откуда и большинство из нас
Age: 37
Name: Дядя Вова
Мастхев альбом, наконец-то из ослика вытянул! :true:

_________________
Image
Image


Top
 Profile  
 
 
PostPosted: 24 Jul 2008 
Прокъмитолист
User avatar
Joined: 12 Aug 2007
Posts: 6504
Lоcаtion: Санктъ-Петербуркъ
Age: 51
Name: Олекъ
Scatterbrain wrote:
Паранойя - 1994 - Месть злЯ [flac]

:crazy: пешите какбэ граматна :crazy:

_________________
прокъметол - это музыко, от которово есть прок (ы)


Top
 Profile  
 
 
PostPosted: 25 Jul 2008 
Хиппей (support team)
User avatar
Joined: 30 Jul 2007
Posts: 108066
Lоcаtion: Киев (Kyiv, UA)
Age: 45
Name: Andrey
Уджоз :oops:
Но исправлять не буду :crazy:


Top
 Profile E-mail  
 
 
PostPosted: 04 Apr 2014 
Хиппей (support team)
User avatar
Joined: 30 Jul 2007
Posts: 108066
Lоcаtion: Киев (Kyiv, UA)
Age: 45
Name: Andrey
http://rutracker.org/forum/viewtopic.php?t=2826853

mirror: Narod l M-Cloud

log
Exact Audio Copy V0.99 prebeta 5 from 4. May 2009

Отчёт EAC об извлечении, выполненном 23. марта 2010, 16:53

Paranoia / Месть Зла

Дисковод: _NEC DVD_RW ND-3570A Adapter: 1 ID: 0

Режим чтения : Достоверность
Использование точного потока : Да
Отключение кэша аудио : Да
Использование указателей C2 : Нет

Коррекция смещения при чтении : 48
Способность читать области Lead-in и Lead-out : Нет
Заполнение пропущенных сэмплов тишиной : Да
Удаление блоков с тишиной в начале и конце : Нет
При вычислениях CRC использовались нулевые сэмплы : Да
Интерфейс : Встроенный Win32-интерфейс для Win NT/2000

Выходной формат : Внутренние WAV-операции
Формат сэмплов : 44.100 Гц; 16 бит; стерео


TOC извлечённого CD

Трек | Старт | Длительность | Начальный сектор | Конечный сектор
---------------------------------------------------------------------
1 | 0:00.30 | 4:49.55 | 30 | 21759
2 | 4:50.10 | 3:57.47 | 21760 | 39581
3 | 8:47.57 | 3:47.18 | 39582 | 56624
4 | 12:35.00 | 3:37.12 | 56625 | 72911
5 | 16:12.12 | 3:36.03 | 72912 | 89114
6 | 19:48.15 | 4:09.20 | 89115 | 107809
7 | 23:57.35 | 4:03.35 | 107810 | 126069
8 | 28:00.70 | 5:39.47 | 126070 | 151541
9 | 33:40.42 | 3:17.70 | 151542 | 166386


Характеристики диапазона извлечения и сообщения об ошибках

Выбранный диапазон

Имя файла C:\Documents and Settings\Лёха\Рабочий стол\Paranoia - Месть Зла.wav

Пиковый уровень 59.5 %
Качество диапазона 99.9 %
CRC теста F875051E
CRC копии F875051E
Копирование... OK

Ошибок не произошло


AccurateRip: сводка

Трек 1 нет в базе данных
Трек 2 нет в базе данных
Трек 3 нет в базе данных
Трек 4 нет в базе данных
Трек 5 нет в базе данных
Трек 6 нет в базе данных
Трек 7 нет в базе данных
Трек 8 нет в базе данных
Трек 9 нет в базе данных

Ни одного трека нет в базе AccurateRip

Конец отчёта

cue
REM GENRE trash
REM DATE 1994
REM DISCID 7908AA09
REM COMMENT "ExactAudioCopy v0.99pb5"
PERFORMER "Paranoia"
TITLE "Месть Зла"
FILE "Paranoia - Месть Зла.wav" WAVE
TRACK 01 AUDIO
TITLE "Повелитель снов"
PERFORMER "Paranoia"
INDEX 00 00:00:00
INDEX 01 00:00:30
TRACK 02 AUDIO
TITLE "Месть зла"
PERFORMER "Paranoia"
INDEX 00 04:48:35
INDEX 01 04:50:10
TRACK 03 AUDIO
TITLE "Слуги дьявола"
PERFORMER "Paranoia"
INDEX 00 08:46:22
INDEX 01 08:47:57
TRACK 04 AUDIO
TITLE "Мертвый марш"
PERFORMER "Paranoia"
INDEX 00 12:33:22
INDEX 01 12:35:00
TRACK 05 AUDIO
TITLE "Царство мертвых теней"
PERFORMER "Paranoia"
INDEX 00 16:10:50
INDEX 01 16:12:12
TRACK 06 AUDIO
TITLE "Гример из морга"
PERFORMER "Paranoia"
INDEX 00 19:47:02
INDEX 01 19:48:15
TRACK 07 AUDIO
TITLE "Массовый психоз"
PERFORMER "Paranoia"
INDEX 00 23:55:72
INDEX 01 23:57:35
TRACK 08 AUDIO
TITLE "Черный ворон"
PERFORMER "Paranoia"
INDEX 00 27:59:50
INDEX 01 28:00:70
TRACK 09 AUDIO
TITLE "Адская тварь"
PERFORMER "Paranoia"
INDEX 00 33:39:02
INDEX 01 33:40:42

_________________


Top
 Profile E-mail  
 
 
PostPosted: 04 Apr 2014 
парень в очёчкXаX!
User avatar
Joined: 15 Aug 2007
Posts: 2353
Lоcаtion: UK'раина, г. ЛондАн Би-Би-Си
Age: 48
Name: Сергей
я вот на винилке не нашел, а цыдко лежит м-е-р-т-в-я-к-о-м, <---с таким же звуком :beee: :cry: :nunu:
кажись хтой-та тут в "цацках" хвастал фоткой винилки ;) :pardon: :true: :ura:


Top
 Profile  
 
 
PostPosted: 07 Apr 2014 
Рарник и трушник
User avatar
Joined: 25 Dec 2009
Posts: 8385
Lоcаtion: Москва
Age: 53
Name: Виталий
Да, лежит/стоИт винилка на полке, всё не доберусь чифирнуть. Прям беда какая-то. Но чифирну скоро. Петьку топорного второго кста чифирнул, скоро залью. ;)


Top
 Profile  
 
 
PostPosted: 07 Apr 2014 
Хиппей (support team)
User avatar
Joined: 30 Jul 2007
Posts: 108066
Lоcаtion: Киев (Kyiv, UA)
Age: 45
Name: Andrey
А я ешшо и не слушал группку :oops:

_________________


Top
 Profile E-mail  
 
 
PostPosted: 07 Apr 2014 
Рарник и трушник
User avatar
Joined: 25 Dec 2009
Posts: 8385
Lоcаtion: Москва
Age: 53
Name: Виталий
Scatterbrain wrote:
А я ешшо и не слушал группку :oops:

Кстати, очень даже недурно, если особо не въезжать в текста. Главное, очень классно прописан материал, особенно винил. ;)


Top
 Profile  
 
 
PostPosted: 07 Apr 2014 
Хиппей (support team)
User avatar
Joined: 30 Jul 2007
Posts: 108066
Lоcаtion: Киев (Kyiv, UA)
Age: 45
Name: Andrey
Да я начитался за 10 лет про группу и альбом многое. Но как и многие другие всякие не спешу его слушать, почему-то :vic:

Хм, или уже слушал, но забыл... :oops:

_________________


Top
 Profile E-mail  
 
 
PostPosted: 07 Apr 2014 
ТрэшЭрос
User avatar
Joined: 18 Jul 2011
Posts: 2299
Lоcаtion: Гулькевичи
Age: 43
Name: Александр
А мне чота вокал ниоченьто както :nea: Ожидал большего - ранее уж очень расхваливали в комментах сиё шедефро
3+/5

_________________
Thrash no trash!!!


Top
 Profile E-mail  
 
Display posts from previous:  Sort by  
Post new topic Reply to topic  [ 12 posts ] 

All times are UTC + 3 hours


Who is online

Users browsing this forum: No registered users and 3 guests


You cannot post new topics in this forum
You cannot reply to topics in this forum
You cannot edit your posts in this forum
You cannot delete your posts in this forum
You cannot post attachments in this forum

Search for:
Яндекс.Метрика
Powered by phpBB © 2000, 2002, 2005, 2007 phpBB Group