\m/ 80's metal \m/

Информационно-аналитический форум "80 см пыли" (In Search We Trust) "У нас никто никуда не спешит"
Me For You - http://me-4u.com
It is currently 12 Nov 2018

All times are UTC + 3 hours

Spoiler
Chat - temporary registration for foreign users (please leave your application here)







Post new topic Reply to topic  [ 22 posts ]  Go to page Previous  1, 2
Author Message
 
PostPosted: 14 Apr 2013 
Хиппей (support team)
User avatar
Joined: 30 Jul 2007
Posts: 107881
Lоcаtion: Киев (Kyiv, UA)
Age: 45
Name: Andrey
Корона Российской Империи - 1994 - С нами Бог [flac]

Image

Genre: ээээ... Melodic Hard/AOR :scratch:
Location: Russia
Fornat: flac + cue + log + front cover
Size: 304 Mb


01. Король
02. Звездный секс
03. Корабль любви
04. Бухара- Москва
05. Луна
06. Обвал в день Гнева
07. Дай нам Бог любви
08. С нами Бог
09. Апокалипсис

F-Bit l Narod

Вроде кто-то просил перезалить... Или заливал. Найти где и кто, сейчас нет времени. Поиск молчит :vic:

Слушал альбом несколько раз, впечатления пока очень противоречивые :pardon:
Продолжаю слушать по мере возможностей...

А пока ревьюшка чужая:
Quote:
КТО СВЕРГ «КОРОНУ РОССИЙСКОЙ ИМПЕРИИ»?

Общеизвестно, что от любви до ненависти – всего один шаг. А сколько шагов от славы до забвения?

Крис Пепил. Имя, легендарное в костанайской тусовке семидесятых и известное в рок-среде Москвы в конце 80-х - начале 90-х. Посвященные в курсе, что громким это выдуманное имя сделал Василий Погорелов, обычный парнишка, выросший в Костанайской области.

Вася родился на Украине в музыкальной певческой семье польских евреев. Вот только считаться евреями тогда в сталинско-хрущевские времена было неперспективно и даже опасно. Бевзы стали Погореловыми.

В начале 1960-х Вася Погорелов вместе с родственниками приезжает в Казахстан поднимать целину. Обосновываются на станции Тобол. Мама работает на местном элеваторе. Вася учится в школе. Самозабвенно увлекается кинологией и музыкой. Тягучие украинские напевы вперемешку с игривыми в доме Погореловых звучат почти постоянно. А Васе уже хочется чего-то другого, нового, необычного, революционного. В летние школьные каникулы он непременно на Украине – в родных Черкассах.

Именно там и произошел его первый публичный концерт на радио. Смастерил он с такими же одержимыми, как сам, пацанами допотопную радиостанцию и стал выходить в люди с концертами. Так появились первые собственные произведения и первый ансамбль. Правда в эфир мальчишки выпускали не только своё, но и то, что невозможно было услышать нигде, кроме как от «вражеских голосов». Так Вася Погорелов стал диссидентом.

После окончания школы была армия. Служил в Германии. Может быть, именно это время окончательно и закрепило в нем дух свободолюбия и бунтарства. Вернувшись, поступает в костанайское культпросветучилище - «кулек» - и почти сразу сколачивает группу «Зодчие». В стране – холодная война, борьба с космополитами и всюду острое ухо КГБ. А Вася Погорелов назло всем носит длиннющие волосы, кожаные штаны с умопомрачительной бахромой и заклёпками. Но этого мало. Его «Зодчие» наполняют Костанай рок-музыкой. Выступают на всех возможных и невозможных площадках.

И довыступались. За очередным концертом в ДК «Текстильщик» последовало экстренное заседание комсомольского бюро КСК. Главный вопрос – «Об аморальном поведении Погорелова Василия в связи с пропагандой западной музыки». В результате – горячее осуждение и запрет на выступления в «Текстильщике». Круг концертных площадок сужался, но это только прибавляло революционному ансамблю азарта. «Зодчие» становятся кумирами костанайской молодежи. А у Васи Погорелова в голове уже другие революционные планы. Ему тесно в Костанае. Его музыкальный и организаторский талант рвется покорить мир.

И покорил. В середине 1980-х он оставляет Костанай и обосновывается в московской коммуналке. Вскоре в первопрестольной появляется новая загадочная рок-группа с потрясающе эпатажным названием «Корона Российской империи». Вася Погорелов становится Кристофером Пепилом.

…Я смотрю видеокассету тех времен. Полуобнажённые атлеты с блестящими от пота желваками мускулов, маски на лицах, сосульки волос до лопаток, море света, техники, тяжелого рока и непременный реющий на ветру трехцветный российский стяг – такой была «Корона» в эпоху нового российского возрождения. Мощной, гордой, всесильной. Как и положено монаршей власти. И щедро-милостивой. На викторины и конкурсы не жалели ничего, включая новые джипы. Казалось, популярности и славе не будет пределов. Золотой диск-миллионник, концерты в Америке, сотрудничество с легендарными западными музыкантами… Сегодня все это предстает кинофантастикой.

…Сейчас Кристоферу чуть за пятьдесят. У него есть две квартиры в Москве, джип, красавица-жена, но нет короны. Он избегает интереса к своему имени и не слишком жалует тех, кто, помня о былом успехе «Короны», и сегодня надеется на его щедрость. А как же музыка? Наверняка, она звучит в его душе. Только вот о чём?

Ольга КУНГУРОВА

http://www.ng.kz/gazeta/190/art/index.shtml?002

log
Exact Audio Copy V1.0 beta 3 from 29. August 2011

Отчёт EAC об извлечении, выполненном 21. ноября 2011, 18:57

Корона Российской Империи / С Нами Бог

Дисковод: HL-DT-STDVDRAM GH15F Adapter: 2 ID: 2

Режим чтения : Достоверность
Использование точного потока : Да
Отключение кэша аудио : Да
Использование указателей C2 : Нет

Коррекция смещения при чтении : 667
Способность читать области Lead-in и Lead-out : Нет
Заполнение пропущенных сэмплов тишиной : Да
Удаление блоков с тишиной в начале и конце : Нет
При вычислениях CRC использовались нулевые сэмплы : Да
Интерфейс : Встроенный Win32-интерфейс для Win NT/2000

Выходной формат : Внутренние WAV-операции
Формат сэмплов : 44.100 Гц; 16 бит; стерео


TOC извлечённого CD

Трек | Старт | Длительность | Начальный сектор | Конечный сектор
---------------------------------------------------------------------
1 | 0:00.00 | 3:16.45 | 0 | 14744
2 | 3:16.45 | 5:18.70 | 14745 | 38664
3 | 8:35.40 | 6:17.31 | 38665 | 66970
4 | 14:52.71 | 5:06.51 | 66971 | 89971
5 | 19:59.47 | 3:08.66 | 89972 | 104137
6 | 23:08.38 | 3:26.53 | 104138 | 119640
7 | 26:35.16 | 4:56.13 | 119641 | 141853
8 | 31:31.29 | 5:12.27 | 141854 | 165280
9 | 36:43.56 | 6:57.29 | 165281 | 196584


Характеристики диапазона извлечения и сообщения об ошибках

Выбранный диапазон

Имя файла E:\Crown Of The Russion Empire\Корона Российской Империи - С Нами Бог.wav

Пиковый уровень 100.0 %
Скорость извлечения 3.0 X
Качество диапазона 99.9 %
CRC теста 4406BA3C
CRC копии 4406BA3C
Копирование... OK

Ошибок не произошло


AccurateRip: сводка

Трек 1 отсутствует в базе данных
Трек 2 отсутствует в базе данных
Трек 3 отсутствует в базе данных
Трек 4 отсутствует в базе данных
Трек 5 отсутствует в базе данных
Трек 6 отсутствует в базе данных
Трек 7 отсутствует в базе данных
Трек 8 отсутствует в базе данных
Трек 9 отсутствует в базе данных

Ни одного трека нет в базе AccurateRip

Конец отчёта

cue
REM GENRE "Heavy Metal"
REM DATE 1994
REM DISCID 7B0A3D09
REM COMMENT "ExactAudioCopy v1.0b3"
PERFORMER "Корона Российской Империи"
TITLE "С Нами Бог"
FILE "Корона Российской Империи - С Нами Бог.wav" WAVE
TRACK 01 AUDIO
TITLE "Король"
PERFORMER "Корона Российской Империи"
FLAGS DCP
INDEX 01 00:00:00
TRACK 02 AUDIO
TITLE "Звездный секс"
PERFORMER "Корона Российской Империи"
FLAGS DCP
INDEX 01 03:16:45
TRACK 03 AUDIO
TITLE "Корабль любви"
PERFORMER "Корона Российской Империи"
FLAGS DCP
INDEX 01 08:35:40
TRACK 04 AUDIO
TITLE "Бухара - Москва"
PERFORMER "Корона Российской Империи"
FLAGS DCP
INDEX 01 14:52:71
TRACK 05 AUDIO
TITLE "Луна"
PERFORMER "Корона Российской Империи"
FLAGS DCP
INDEX 01 19:59:47
TRACK 06 AUDIO
TITLE "Обвал в день Гнева"
PERFORMER "Корона Российской Империи"
FLAGS DCP
INDEX 01 23:08:38
TRACK 07 AUDIO
TITLE "Дай нам Бог любви"
PERFORMER "Корона Российской Империи"
FLAGS DCP
INDEX 01 26:35:16
TRACK 08 AUDIO
TITLE "С нами Бог"
PERFORMER "Корона Российской Империи"
FLAGS DCP
INDEX 01 31:31:29
TRACK 09 AUDIO
TITLE "Апокалипсис"
PERFORMER "Корона Российской Империи"
FLAGS DCP
INDEX 01 36:43:56
INDEX 02 36:44:45


Взято отсюда: http://rutracker.org/forum/viewtopic.php?t=3826037 :thanx:

_________________


Top
 Profile E-mail  
 
 
PostPosted: 15 Feb 2015 
Хиппей (support team)
User avatar
Joined: 30 Jul 2007
Posts: 107881
Lоcаtion: Киев (Kyiv, UA)
Age: 45
Name: Andrey
dr_rockter wrote:
Надо хотя бы сейчас послушать енто чудо.

Лучше не пробуй... :oops:

_________________


Top
 Profile E-mail  
 
 
PostPosted: 15 Feb 2015 
Alive Again
User avatar
Joined: 17 Dec 2008
Posts: 4739
Lоcаtion: Курск Воронеж Оскол
Age: 44
Name: Дмитрий
dr_rockter wrote:
Надо хотя бы сейчас послушать енто чудо.

Лучше не пробуй... :oops:

Попробовал, немножко по началам песен, видимо ребяты хотели на метале баблосов срубить.
Quote:
А хто это? :shok:

Black Angels :lob: viewtopic.php?f=64&t=958

Точно, та же направленность.
Из современных на эту тему вспомнилась
полит бригада Пилигрим
Можно из подобного барахла отдельную тему составить и вносить в анналы этих героев.


Top
 Profile E-mail  
 
Display posts from previous:  Sort by  
Post new topic Reply to topic  [ 22 posts ]  Go to page Previous  1, 2

All times are UTC + 3 hours


Who is online

Users browsing this forum: No registered users and 1 guest


You cannot post new topics in this forum
You cannot reply to topics in this forum
You cannot edit your posts in this forum
You cannot delete your posts in this forum
You cannot post attachments in this forum

Search for:
Яндекс.Метрика
Powered by phpBB © 2000, 2002, 2005, 2007 phpBB Group