\m/ 80's metal \m/

Информационно-аналитический форум "80 см пыли" (In Search We Trust) "У нас никто никуда не спешит"
Me For You - http://me-4u.com
It is currently 26 Jun 2019

All times are UTC + 3 hours

Spoiler
Chat - temporary registration for foreign users (please leave your application here)







Post new topic Reply to topic  [ 9 posts ] 
Author Message
 
PostPosted: 26 Jan 2011 
Работнечег
User avatar
Joined: 28 Aug 2007
Posts: 5889
Lоcаtion: г. Москва
Age: 30
Name: Дима
Image

Band: Iron Gang/Legacy
Album: Iron Gangfighters Are Ready For the Combat (Split)
Label: Return The Crusher Of Posers
Genre: Speed Metal
Country: Colombia
Format: Flac + Log + Cue + Covers/Mp3@320 kbps + Covers
Size: 274 Mb/115 Mb

Line-Up:
Iron Gang:
A. Penetrator - Guitar, Vocals (Alcoholic Force)
Freddy E. Drunk (Freddy Morales) - Drums (Alcoholic Force, Headbash)


Legacy:
Camilo Montoya - Vocal, Guitar (Alcoholic Force)
Yeison Orozco - Drums


Tracklist:
Iron Gang
1. Kamikazze Blitzkrieg
2. A.W.B.A.
3. Neurotic Thrashing Kult
4. K.S.M.M.
5. Kill Sentences And Rites
6. Infernal Crossfire
Legacy (Col)
7. Time To Kill
8. Seek, Destroy
9. Warrior's Fate
10. Apocalypse
11. Witchhammer
12. Crossfire*
13. Pleasure For The Violence**

Tape limited to 200 handnumered copies.
* - taken from the release "Crossfire" 2007
** - taken from the release "Speed Destroy" 2005


LOG
Exact Audio Copy V0.99 prebeta 5 from 4. May 2009

EAC extraction logfile from 14. January 2011, 14:24

Various / Iron Gangfighters Are Ready For the Combat

Used drive : PIONEER DVD-RW DVR-116D Adapter: 0 ID: 0

Read mode : Secure
Utilize accurate stream : Yes
Defeat audio cache : Yes
Make use of C2 pointers : No

Read offset correction : 96
Overread into Lead-In and Lead-Out : No
Fill up missing offset samples with silence : Yes
Delete leading and trailing silent blocks : No
Null samples used in CRC calculations : Yes
Used interface : Native Win32 interface for Win NT & 2000

Used output format : User Defined Encoder
Selected bitrate : 32 kBit/s
Quality : High
Add ID3 tag : No
Command line compressor : C:\Program Files\Exact Audio Copy\Flac\flac.exe
Additional command line options : -6 -V %s


TOC of the extracted CD

Track | Start | Length | Start sector | End sector
---------------------------------------------------------
1 | 0:00.00 | 3:32.11 | 0 | 15910
2 | 3:32.11 | 3:42.63 | 15911 | 32623
3 | 7:14.74 | 3:42.35 | 32624 | 49308
4 | 10:57.34 | 4:23.47 | 49309 | 69080
5 | 15:21.06 | 5:35.02 | 69081 | 94207
6 | 20:56.08 | 2:53.65 | 94208 | 107247
7 | 23:49.73 | 4:48.18 | 107248 | 128865
8 | 28:38.16 | 2:59.59 | 128866 | 142349
9 | 31:38.00 | 2:51.17 | 142350 | 155191
10 | 34:29.17 | 3:14.12 | 155192 | 169753
11 | 37:43.29 | 3:26.56 | 169754 | 185259
12 | 41:10.10 | 4:13.53 | 185260 | 204287
13 | 45:23.63 | 4:30.03 | 204288 | 224540


Range status and errors

Selected range

Filename D:\Музыка\Lossless\Iron Gang and Legacy\Various - Iron Gangfighters Are Ready For the Combat.wav

Peak level 100.0 %
Range quality 99.9 %
Copy CRC 8D69B395
Copy OK

No errors occurred


AccurateRip summary

Track 1 not present in database
Track 2 not present in database
Track 3 not present in database
Track 4 not present in database
Track 5 not present in database
Track 6 not present in database
Track 7 not present in database
Track 8 not present in database
Track 9 not present in database
Track 10 not present in database
Track 11 not present in database
Track 12 not present in database
Track 13 not present in database

None of the tracks are present in the AccurateRip database

End of status report

CUE
REM GENRE "Speed/Thrash Metal"
REM DATE 2008
REM DISCID 9D0BB10D
REM COMMENT "ExactAudioCopy v0.99pb5"
PERFORMER "Various"
TITLE "Iron Gangfighters Are Ready For the Combat "
FILE "Various - Iron Gangfighters Are Ready For the Combat.flac" WAVE
TRACK 01 AUDIO
TITLE "Kamikazze Blitzkrieg"
PERFORMER "Kamikazze Blitzkrieg"
FLAGS DCP
INDEX 01 00:00:00
TRACK 02 AUDIO
TITLE "A.W.B.A."
PERFORMER "A.W.B.A."
FLAGS DCP
INDEX 00 03:30:11
INDEX 01 03:32:11
TRACK 03 AUDIO
TITLE "Neurotic Thrashing Kult"
PERFORMER "Neurotic Thrashing Kult"
FLAGS DCP
INDEX 00 07:12:74
INDEX 01 07:14:74
TRACK 04 AUDIO
TITLE "K.s.m.m."
PERFORMER "K.s.m.m."
FLAGS DCP
INDEX 00 10:55:34
INDEX 01 10:57:34
TRACK 05 AUDIO
TITLE "Kill Sentences And Rites"
PERFORMER "Kill Sentences And Rites"
FLAGS DCP
INDEX 00 15:19:06
INDEX 01 15:21:06
TRACK 06 AUDIO
TITLE "Infernal Crossfire"
PERFORMER "Infernal Crossfire"
FLAGS DCP
INDEX 00 20:54:08
INDEX 01 20:56:08
TRACK 07 AUDIO
TITLE "Time To Kill"
PERFORMER "Time To Kill"
FLAGS DCP
INDEX 00 23:47:73
INDEX 01 23:49:73
TRACK 08 AUDIO
TITLE "Seek, Destroy"
PERFORMER "Seek, Destroy"
FLAGS DCP
INDEX 00 28:36:16
INDEX 01 28:38:16
TRACK 09 AUDIO
TITLE "Warrior's Fate"
PERFORMER "Warrior's Fate"
FLAGS DCP
INDEX 00 31:36:00
INDEX 01 31:38:00
TRACK 10 AUDIO
TITLE "Apocalypse"
PERFORMER "Apocalypse"
FLAGS DCP
INDEX 00 34:27:17
INDEX 01 34:29:17
TRACK 11 AUDIO
TITLE "Witchhammer"
PERFORMER "Witchhammer"
FLAGS DCP
INDEX 00 37:41:29
INDEX 01 37:43:29
TRACK 12 AUDIO
TITLE "Crossfire"
PERFORMER "Crossfire"
FLAGS DCP
INDEX 00 41:08:10
INDEX 01 41:10:10
TRACK 13 AUDIO
TITLE "Pleasures For The Violence"
PERFORMER "Pleasures For The Violence"
FLAGS DCP
INDEX 00 45:21:63
INDEX 01 45:23:63


FLAC
MP3@320
Myspace Legacy

Токо сразу скажу для любителей лосей, что с кассеты на болванку перегонял не я, поэтому лось не знаю насколько правильный получился :oops: Так сплит звучит можно сказать олдскульно глухова-то, группы неплохие, фанатом я не стал, но прослушал с удовольствием :true:
P.S. Если есть ещё фанаты андерграунда могу выложить демку Farscape - Doctrine Sickness (2001) и сплит ещё двух колумбийских групп Knell/Antemortem - Galeras Thrash Assault (2006).


Top
 Profile E-mail  
 
 
PostPosted: 26 Jan 2011 
Прокъмитолист
User avatar
Joined: 12 Aug 2007
Posts: 6565
Lоcаtion: Санктъ-Петербуркъ
Age: 51
Name: Олекъ
спасибо, Дим! не знаю когда удастся заценить, но скачать не помешает :oops:

_________________
прокъметол - это музыко, от которово есть прок (ы)


Top
 Profile  
 
 
PostPosted: 10 Oct 2012 
А может смените мне статус?..
User avatar
Joined: 24 Sep 2012
Posts: 856
Lоcаtion: Нижегородская обл.
Age: 48
Name: Вячеслав
Отличный сплит, жаль ссылка на лосика не рабочая!

_________________
Image


Top
 Profile E-mail  
 
 
PostPosted: 10 Oct 2012 
консэрваторъ
User avatar
Joined: 11 Aug 2007
Posts: 17005
Lоcаtion: Псков
Age: 45
Name: Сергей
Слава, чего так робко? Погрустил и ушёл без лося? Перезалив будешь просить?

_________________
THRASH 'EM ALL


Top
 Profile E-mail  
 
 
PostPosted: 10 Oct 2012 
Работнечег
User avatar
Joined: 28 Aug 2007
Posts: 5889
Lоcаtion: г. Москва
Age: 30
Name: Дима
Отличный сплит, жаль ссылка на лосика не рабочая!

Новая ссылка в первом посте ;)


Top
 Profile E-mail  
 
 
PostPosted: 10 Oct 2012 
ТрэшЭрос
User avatar
Joined: 18 Jul 2011
Posts: 2303
Lоcаtion: Гулькевичи
Age: 44
Name: Александр
church wrote:
Новая ссылка в первом посте ;)

Спасибо, Дим! :thanx:
Если не верить "М-А", это сплит не 2008 года

_________________
Thrash no trash!!!


Top
 Profile E-mail  
 
 
PostPosted: 10 Oct 2012 
Работнечег
User avatar
Joined: 28 Aug 2007
Posts: 5889
Lоcаtion: г. Москва
Age: 30
Name: Дима
почему?
Release date: February 2008


Top
 Profile E-mail  
 
 
PostPosted: 11 Oct 2012 
ТрэшЭрос
User avatar
Joined: 18 Jul 2011
Posts: 2303
Lоcаtion: Гулькевичи
Age: 44
Name: Александр
church wrote:
почему?

Шютка! :benya: (игра слов)

_________________
Thrash no trash!!!


Top
 Profile E-mail  
 
 
PostPosted: 11 Oct 2012 
А может смените мне статус?..
User avatar
Joined: 24 Sep 2012
Posts: 856
Lоcаtion: Нижегородская обл.
Age: 48
Name: Вячеслав
Слава, чего так робко? Погрустил и ушёл без лося? Перезалив будешь просить?

Думал пошлёте по дальше.....
Огромное спасибо за прекрасный релиз! :meloman: :thanx:

_________________
Image


Top
 Profile E-mail  
 
Display posts from previous:  Sort by  
Post new topic Reply to topic  [ 9 posts ] 

All times are UTC + 3 hours


Who is online

Users browsing this forum: No registered users and 2 guests


You cannot post new topics in this forum
You cannot reply to topics in this forum
You cannot edit your posts in this forum
You cannot delete your posts in this forum
You cannot post attachments in this forum

Search for:
Яндекс.Метрика
Powered by phpBB © 2000, 2002, 2005, 2007 phpBB Group