\m/ 80's metal \m/

Информационно-аналитический форум "80 см пыли" (In Search We Trust) "У нас никто никуда не спешит"
Me For You - http://me-4u.com
It is currently 17 Sep 2019

All times are UTC + 3 hours

Spoiler
Chat - temporary registration for foreign users (please leave your application here)







Post new topic Reply to topic  [ 169 posts ]  Go to page Previous  1, 2, 3, 4, 5, 6, 7 ... 9  Next
Author Message
 
PostPosted: 19 Dec 2010 
Прокъмитолист
User avatar
Joined: 12 Aug 2007
Posts: 6600
Lоcаtion: Санктъ-Петербуркъ
Age: 51
Name: Олекъ
VA [1993] Forgotten Metal: Outstanding Metal Gems
Revenge Of True Metal Records

Image

Vol. 01: Exodo + Inherent Sin + IronHawk
. . . Exodo [1988] The New Babylon
01. Groups Of Defense
02. The New Babylon
03. Sex
04. Born To Be Wild
05. Just One Day
06. Thunders In The City
07. Sons Of The Night
08. Heart In Flames
. . . Inherent Sin [1989] Children Of The Night
09. Children Of The Night
10. Gates Of Hell
11. It's Never Too Late
12. Starlight
. . . IronHawk [1983] To The Point!
13. More Of The Same
14. Locked Away
15. Dreams Of Fortune
16. Cry Out

EAC log
Code:
Отчёт EAC об извлечении, выполненном 15. октября 2007, 22:06 для диска:
Exodo / Inherent Sin / Iron Hawk / The New Babylon / Children Of The Night / To The Point!

Дисковод: NERO    IMAGEDRIVE2   Adapter: 2  ID: 0
Режим чтения: Точный (C2: нет, Точный поток: да, Отключение кэша: нет)
Комбинированное смещение чтения/записи: 0
Экстрачтение областей Lead-in и Lead-out : Нет

Выходной формат: C:\Program Files\Exact Audio Copy\files\MAC.exe   (Кодер Monkey's Audio (без потерь))
                     Normal Lossless Compression

Другие параметры:
    Заполнение пропущенных сэмплов тишиной : Да
    Удаление блоков с тишиной в начале и конце : Нет
    Установленный внешний ASPI-интерфейс


Статус диапазона и ошибки
Выбранный диапазон
     Имя файла E:\Новые образы от Толяна\Apes\Exodo_Inherent Sin_Iron Hawk\CDImage.wav

     Пиковый уровень 91.1 %
     Качество диапазона 100.0 %
     CRC 6AF05DD6
     Копирование... OK

Ошибок не произошло

Конец отчёта


Image

Vol. 02: Tyrants Reign + Ray Gunn + Ivory Tiger
. . . Tyrant's Reign [1987] Year Of The Tyrants
01. Tyrant's Reign
02. Jack The Ripper
03. Untamed
04. Deadly Eyes
05. Reign Of Terror
06. Fadeaway
. . . Ray Gunn [1987] Ray Gunn
07. Critical Miscalculation
08. Don't You Dare
09. No Control
10. Heart & Soul
11. I Don't Know
12. Watching You
13. I Am Yours (You're Mine)
14. The Other Way
15. R.M.A.
. . . Ivory Tiger [1986] Metal Mountain
16. Stand Up (Watch Out)
17. Starchild
18. Chandar
19. Metal Mountain

EAC log
Code:
Exact Audio Copy V0.99 prebeta 5 from 4. May 2009

EAC extraction logfile from 5. November 2010, 16:15

Forgotten Metal Vol.2  / Tyrant's Reign+Ray Gunn+Ivory Tiger

Used drive  : TSSTcorpCDDVDW SH-S203D   Adapter: 1  ID: 1

Read mode               : Secure
Utilize accurate stream : Yes
Defeat audio cache      : Yes
Make use of C2 pointers : No

Read offset correction                      : 6
Overread into Lead-In and Lead-Out          : No
Fill up missing offset samples with silence : Yes
Delete leading and trailing silent blocks   : No
Null samples used in CRC calculations       : Yes
Used interface                              : Native Win32 interface for Win NT & 2000

Used output format : Internal WAV Routines
Sample format      : 44.100 Hz; 16 Bit; Stereo


TOC of the extracted CD

     Track |   Start  |  Length  | Start sector | End sector
    ---------------------------------------------------------
        1  |  0:00.00 |  4:12.67 |         0    |    18966   
        2  |  4:12.67 |  4:35.68 |     18967    |    39659   
        3  |  8:48.60 |  3:37.67 |     39660    |    56001   
        4  | 12:26.52 |  3:41.06 |     56002    |    72582   
        5  | 16:07.58 |  3:59.10 |     72583    |    90517   
        6  | 20:06.68 |  6:44.36 |     90518    |   120853   
        7  | 26:51.29 |  2:16.00 |    120854    |   131053   
        8  | 29:07.29 |  3:14.31 |    131054    |   145634   
        9  | 32:21.60 |  3:12.21 |    145635    |   160055   
       10  | 35:34.06 |  3:52.56 |    160056    |   177511   
       11  | 39:26.62 |  2:23.34 |    177512    |   188270   
       12  | 41:50.21 |  2:35.38 |    188271    |   199933   
       13  | 44:25.59 |  3:17.42 |    199934    |   214750   
       14  | 47:43.26 |  3:45.31 |    214751    |   231656   
       15  | 51:28.57 |  3:10.09 |    231657    |   245915   
       16  | 54:38.66 |  4:00.06 |    245916    |   263921   
       17  | 58:38.72 |  2:23.17 |    263922    |   274663   
       18  | 61:02.14 |  3:15.57 |    274664    |   289345   
       19  | 64:17.71 |  3:34.48 |    289346    |   305443   


Range status and errors

Selected range

     Filename D:\На телефон\НОВОЕ\Forgotten Metal Vol.2  - Tyrant's Reign+Ray Gunn+Ivory Tiger.wav

     Peak level 91.0 %
     Range quality 99.9 %
     Copy CRC A108B1CD
     Copy OK

No errors occurred


AccurateRip summary

Track  1  not present in database
Track  2  not present in database
Track  3  not present in database
Track  4  not present in database
Track  5  not present in database
Track  6  not present in database
Track  7  not present in database
Track  8  not present in database
Track  9  not present in database
Track 10  not present in database
Track 11  not present in database
Track 12  not present in database
Track 13  not present in database
Track 14  not present in database
Track 15  not present in database
Track 16  not present in database
Track 17  not present in database
Track 18  not present in database
Track 19  not present in database

None of the tracks are present in the AccurateRip database

End of status report


Image

Vol. 03: Solar Eagle + Matakopas + Zen Venom
. . . Solar Eagle [1988] Solar Eagle
01. See
02. Dimensional Charter
03. Tree Of Snakes
04. Lost Season
. . . Matakopas [1987] Coming Out Ahead
05. Strangers
06. Thoughts
07. For Your Life
08. Cruel Cruel You
09. Time Of Day
10. Night Stalker
11. Dreamer
12. Matakopas
13. Insane
. . . Zen Venom [1988] From Another Planet
14. From Another Planet
15. Brainwashed
16. Kiss Of Death
17. Fools Gold

EAC log
Code:
EAC extraction logfile from 27. December 2010, 21:55 for CD
VA / Forgotten Metal Vol. 03

Used drive  : OFCNOHK A7K1MZCT2VOP   Adapter: 6  ID: 0
Read mode   : Secure with NO C2, accurate stream, disable cache
Read offset correction : 12
Overread into Lead-In and Lead-Out : No

Used output format : Internal WAV Routines
                     44.100 Hz; 16 Bit; Stereo

Other options      :
    Fill up missing offset samples with silence : Yes
    Delete leading and trailing silent blocks : No
    Installed external ASPI interface


Range status and errors
Selected range
     Filename D:\spiralarch\VA - Forgotten Metal Vol. 03.wav

     Peak level 90.7 %
     Range quality 100.0 %
     CRC B01AC308
     Copy OK

No errors occured

End of status report


Image

Vol. 04: Leader + Unicorn + Axton Pryte
. . . Leader [1988] Out In The Wasteland
01. The Hunters
02. Fire
03. Eye Of Tomorrow
04. Wastelands
05. Out Of Control
06. Killer
07. Ride On The Wind
08. Wings Of Steel
09. Neckbreaker
10. Shoot To Kill
. . . Unicorn [1987] The Legend Returns
11. The Last Command
12. Eyes On Fire
13. The Return Of The Legend
14. Children Of Tomorrow
. . . Axton Pryte [1986] The Lab
15. Suicidal Fight
16. Warriors Of The Wind
17. Eternal Recital
18. Catch The Windblow
19. Inquisition

EAC log
Code:
Exact Audio Copy V0.99 prebeta 5 from 4. May 2009

EAC extraction logfile from 9. December 2010, 21:26

Forgotten Metal Vol.4 / Leader+Unicorn+Axton Pryte

Used drive  : TSSTcorpCDDVDW SH-S203D   Adapter: 1  ID: 1

Read mode               : Secure
Utilize accurate stream : Yes
Defeat audio cache      : Yes
Make use of C2 pointers : No

Read offset correction                      : 6
Overread into Lead-In and Lead-Out          : No
Fill up missing offset samples with silence : Yes
Delete leading and trailing silent blocks   : No
Null samples used in CRC calculations       : Yes
Used interface                              : Native Win32 interface for Win NT & 2000

Used output format : Internal WAV Routines
Sample format      : 44.100 Hz; 16 Bit; Stereo


TOC of the extracted CD

     Track |   Start  |  Length  | Start sector | End sector
    ---------------------------------------------------------
        1  |  0:00.00 |  4:34.48 |         0    |    20597   
        2  |  4:34.48 |  2:58.06 |     20598    |    33953   
        3  |  7:32.54 |  3:02.04 |     33954    |    47607   
        4  | 10:34.58 |  3:54.55 |     47608    |    65212   
        5  | 14:29.38 |  3:29.07 |     65213    |    80894   
        6  | 17:58.45 |  3:37.46 |     80895    |    97215   
        7  | 21:36.16 |  3:20.32 |     97216    |   112247   
        8  | 24:56.48 |  3:39.13 |    112248    |   128685   
        9  | 28:35.61 |  2:37.62 |    128686    |   140522   
       10  | 31:13.48 |  2:59.72 |    140523    |   154019   
       11  | 34:13.45 |  4:11.00 |    154020    |   172844   
       12  | 38:24.45 |  4:27.73 |    172845    |   192942   
       13  | 42:52.43 |  6:57.13 |    192943    |   224230   
       14  | 49:49.56 |  4:54.69 |    224231    |   246349   
       15  | 54:44.50 |  2:31.02 |    246350    |   257676   
       16  | 57:15.52 |  4:18.05 |    257677    |   277031   
       17  | 61:33.57 |  5:34.11 |    277032    |   302092   
       18  | 67:07.68 |  3:49.17 |    302093    |   319284   
       19  | 70:57.10 |  4:45.06 |    319285    |   340665   


Range status and errors

Selected range

     Filename D:\На телефон\НОВОЕ\Forgotten Metal Vol.4 - Leader+Unicorn+Axton Pryte.wav

     Peak level 91.1 %
     Range quality 99.9 %
     Copy CRC 1CB43732
     Copy OK

No errors occurred


AccurateRip summary

Track  1  accurately ripped (confidence 1)  [5F420C98]
Track  2  accurately ripped (confidence 1)  [3A19D7FA]
Track  3  accurately ripped (confidence 1)  [AE84D4E3]
Track  4  accurately ripped (confidence 1)  [51384B28]
Track  5  accurately ripped (confidence 1)  [E91DEAF2]
Track  6  accurately ripped (confidence 1)  [83D3D4D9]
Track  7  accurately ripped (confidence 1)  [9D8D18D8]
Track  8  accurately ripped (confidence 1)  [950021A2]
Track  9  accurately ripped (confidence 1)  [4E36A2C4]
Track 10  accurately ripped (confidence 1)  [0EE047B5]
Track 11  accurately ripped (confidence 1)  [2250D8D5]
Track 12  accurately ripped (confidence 1)  [C32E2F1C]
Track 13  accurately ripped (confidence 1)  [7E2490CF]
Track 14  accurately ripped (confidence 1)  [EDC85374]
Track 15  accurately ripped (confidence 1)  [875280BC]
Track 16  accurately ripped (confidence 1)  [0A4BF703]
Track 17  accurately ripped (confidence 1)  [1B47AFCD]
Track 18  cannot be verified as accurate (confidence 1)  [977185CC], AccurateRip returned [9856A465]
Track 19  accurately ripped (confidence 1)  [6FFCAAAD]

18 track(s) accurately ripped
1 track(s) could not be verified as accurate

Some tracks could not be verified as accurate

End of status report


Image

Vol. 05: D.D.T. + Madd Hatter + Dark Knight
. . . D.D.T. [1984] Let The Screw... Turn You On!
01. Let The Screw...
02. Bitches
03. Metal On Ashes
04. Wasted
05. Where Were You
. . . Madd Hatter [1985] Madd Hatter
06. My Money
07. You're In The Real World
08. Better Dead (Than Red)
09. In My Nightmare
10. Fight The Dragon
11. Change Of Heart
12. Goodbye Forever
13. Radical Mass
14. Nowhere Fast
. . . Dark Knight [1984] Dark Knight
15. The Grass (Is Greener)
16. Cabin Fever
17. When All Else Fails
18. Return Of The Dark Knight

EAC log
Code:
Exact Audio Copy V0.99 prebeta 5 from 4. May 2009

EAC extraction logfile from 7. August 2009, 13:32

Various / Forgotten Metal Vol. 05

Used drive  : HP      CD-Writer cd16b   Adapter: 4  ID: 0

Read mode               : Secure
Utilize accurate stream : Yes
Defeat audio cache      : Yes
Make use of C2 pointers : No

Read offset correction                      : 12
Overread into Lead-In and Lead-Out          : No
Fill up missing offset samples with silence : Yes
Delete leading and trailing silent blocks   : No
Null samples used in CRC calculations       : Yes
Used interface                              : Native Win32 interface for Win NT & 2000

Used output format : Internal WAV Routines
Sample format      : 44.100 Hz; 16 Bit; Stereo


TOC of the extracted CD

     Track |   Start  |  Length  | Start sector | End sector
    ---------------------------------------------------------
        1  |  0:00.00 |  3:55.06 |         0    |    17630   
        2  |  3:55.06 |  4:18.28 |     17631    |    37008   
        3  |  8:13.34 |  4:42.39 |     37009    |    58197   
        4  | 12:55.73 |  3:07.12 |     58198    |    72234   
        5  | 16:03.10 |  2:23.54 |     72235    |    83013   
        6  | 18:26.64 |  4:36.07 |     83014    |   103720   
        7  | 23:02.71 |  3:14.45 |    103721    |   118315   
        8  | 26:17.41 |  3:26.07 |    118316    |   133772   
        9  | 29:43.48 |  3:45.08 |    133773    |   150655   
       10  | 33:28.56 |  3:12.24 |    150656    |   165079   
       11  | 36:41.05 |  3:10.14 |    165080    |   179343   
       12  | 39:51.19 |  2:34.19 |    179344    |   190912   
       13  | 42:25.38 |  2:31.64 |    190913    |   202301   
       14  | 44:57.27 |  2:49.49 |    202302    |   215025   
       15  | 47:47.01 |  4:09.07 |    215026    |   233707   
       16  | 51:56.08 |  6:36.64 |    233708    |   263471   
       17  | 58:32.72 |  5:18.08 |    263472    |   287329   
       18  | 63:51.05 |  7:41.02 |    287330    |   321906   


Range status and errors

Selected range

     Filename G:\KL\VA [1993] Forgotten Metal Vol. 05\VA - Forgotten Metal Vol. 05.wav

     Peak level 91.1 %
     Range quality 100.0 %
     Copy CRC D135FBD1
     Copy OK

No errors occurred


AccurateRip summary

Track  1  not present in database
Track  2  not present in database
Track  3  not present in database
Track  4  not present in database
Track  5  not present in database
Track  6  not present in database
Track  7  not present in database
Track  8  not present in database
Track  9  not present in database
Track 10  not present in database
Track 11  not present in database
Track 12  not present in database
Track 13  not present in database
Track 14  not present in database
Track 15  not present in database
Track 16  not present in database
Track 17  not present in database
Track 18  not present in database

None of the tracks are present in the AccurateRip database

End of status report


Image

Vol. 06: Stormtrooper + Avalon + Emmy Strut
. . . Stormtrooper [1985] Armies Of The Night
01. The Reaper
02. Armies Of The Night
03. Steamroller
04. Search And Destroy
05. The Beast Within
. . . Avalon [1988] Live Or Die
06. Live Or Die
07. Lonely Mountain
08. Wings Of Steel
09. New King Rising
10. Freedom Shore
11. Sea Of Fate
12. Lords Of Chaos
13. Mist Of Avalon
. . . Emmy Strut [1985] Emmy Strut
14. Eyes Of The Night
15. Ready For Action
16. No Escape
17. Comin' And Goin'

EAC log
Code:
Exact Audio Copy V0.99 prebeta 5 from 4. May 2009

EAC extraction logfile from 9. December 2010, 22:00

Forgotten Metal Vol.6 / Stormtrooper+Avalon+Emmy Strut

Used drive  : TSSTcorpCDDVDW SH-S203D   Adapter: 1  ID: 1

Read mode               : Secure
Utilize accurate stream : Yes
Defeat audio cache      : Yes
Make use of C2 pointers : No

Read offset correction                      : 6
Overread into Lead-In and Lead-Out          : No
Fill up missing offset samples with silence : Yes
Delete leading and trailing silent blocks   : No
Null samples used in CRC calculations       : Yes
Used interface                              : Native Win32 interface for Win NT & 2000

Used output format : Internal WAV Routines
Sample format      : 44.100 Hz; 16 Bit; Stereo


TOC of the extracted CD

     Track |   Start  |  Length  | Start sector | End sector
    ---------------------------------------------------------
        1  |  0:00.00 |  1:53.71 |         0    |     8545   
        2  |  1:53.71 |  3:14.10 |      8546    |    23105   
        3  |  5:08.06 |  4:30.43 |     23106    |    43398   
        4  |  9:38.49 |  3:32.27 |     43399    |    59325   
        5  | 13:11.01 |  5:00.03 |     59326    |    81828   
        6  | 18:11.04 |  3:21.21 |     81829    |    96924   
        7  | 21:32.25 |  3:37.58 |     96925    |   113257   
        8  | 25:10.08 |  4:14.38 |    113258    |   132345   
        9  | 29:24.46 |  3:59.09 |    132346    |   150279   
       10  | 33:23.55 |  4:58.37 |    150280    |   172666   
       11  | 38:22.17 |  4:42.73 |    172667    |   193889   
       12  | 43:05.15 |  4:13.54 |    193890    |   212918   
       13  | 47:18.69 |  4:57.19 |    212919    |   235212   
       14  | 52:16.13 |  4:15.11 |    235213    |   254348   
       15  | 56:31.24 |  4:58.39 |    254349    |   276737   
       16  | 61:29.63 |  5:40.13 |    276738    |   302250   
       17  | 67:10.01 |  4:01.16 |    302251    |   320341   


Range status and errors

Selected range

     Filename D:\На телефон\НОВОЕ\Forgotten Metal Vol.6 - Stormtrooper+Avalon+Emmy Strut.wav

     Peak level 90.8 %
     Range quality 99.9 %
     Copy CRC 4DA67546
     Copy OK

No errors occurred


AccurateRip summary

Track  1  accurately ripped (confidence 1)  [482E1174]
Track  2  accurately ripped (confidence 1)  [3CBBAB49]
Track  3  accurately ripped (confidence 1)  [9D868A59]
Track  4  accurately ripped (confidence 1)  [BC50361E]
Track  5  accurately ripped (confidence 1)  [3049B223]
Track  6  accurately ripped (confidence 1)  [72F992E3]
Track  7  accurately ripped (confidence 1)  [C7BC33D6]
Track  8  accurately ripped (confidence 1)  [88711F89]
Track  9  accurately ripped (confidence 1)  [F9FB68EA]
Track 10  accurately ripped (confidence 1)  [3DF6B6AD]
Track 11  accurately ripped (confidence 1)  [E5451175]
Track 12  accurately ripped (confidence 1)  [CC736DC2]
Track 13  accurately ripped (confidence 1)  [349CB67E]
Track 14  accurately ripped (confidence 1)  [DC0B3191]
Track 15  accurately ripped (confidence 1)  [89D4D61F]
Track 16  accurately ripped (confidence 1)  [AC7CD2B5]
Track 17  accurately ripped (confidence 1)  [D9CA0B7C]

All tracks accurately ripped

End of status report


Image

Vol. 07: Heathens Rage + Mainiax + Thatcher
. . . Heathens Rage [1986] Heathens Rage
01. Knights Of Steel
02. City Of Hell
03. Dark Storm
. . . Mainiax [1986] Boys Night Out
04. Life Of Crime
05. Boys Night Out
06. Love Machine
07. Night Of The Polizei
08. What You See Is What You Get
09. The Witching Hour
10. Yellow Star
11. One Size
. . . Thatcher [1985] Destined To Conquer
12. Esmeralda
13. Speed Demon
14. Robbed Of My Childhood
15. Witch's Sin

EAC log
Code:
Exact Audio Copy V0.99 prebeta 5 from 4. May 2009

EAC extraction logfile from 9. December 2010, 22:31

Forgotten Metal Vol.7 / Heathens Rage+Mainiax+Thatcher

Used drive  : TSSTcorpCDDVDW SH-S203D   Adapter: 1  ID: 1

Read mode               : Secure
Utilize accurate stream : Yes
Defeat audio cache      : Yes
Make use of C2 pointers : No

Read offset correction                      : 6
Overread into Lead-In and Lead-Out          : No
Fill up missing offset samples with silence : Yes
Delete leading and trailing silent blocks   : No
Null samples used in CRC calculations       : Yes
Used interface                              : Native Win32 interface for Win NT & 2000

Used output format : Internal WAV Routines
Sample format      : 44.100 Hz; 16 Bit; Stereo


TOC of the extracted CD

     Track |   Start  |  Length  | Start sector | End sector
    ---------------------------------------------------------
        1  |  0:00.00 |  4:45.10 |         0    |    21384   
        2  |  4:45.10 |  4:03.70 |     21385    |    39679   
        3  |  8:49.05 |  3:26.04 |     39680    |    55133   
        4  | 12:15.09 |  3:46.48 |     55134    |    72131   
        5  | 16:01.57 |  4:11.60 |     72132    |    91016   
        6  | 20:13.42 |  3:01.15 |     91017    |   104606   
        7  | 23:14.57 |  4:32.07 |    104607    |   125013   
        8  | 27:46.64 |  5:31.44 |    125014    |   149882   
        9  | 33:18.33 |  9:34.34 |    149883    |   192966   
       10  | 42:52.67 |  7:08.58 |    192967    |   225124   
       11  | 50:01.50 |  2:31.63 |    225125    |   236512   
       12  | 52:33.38 |  8:09.20 |    236513    |   273207   
       13  | 60:42.58 |  3:55.52 |    273208    |   290884   
       14  | 64:38.35 |  3:53.26 |    290885    |   308385   
       15  | 68:31.61 |  3:22.62 |    308386    |   323597   


Range status and errors

Selected range

     Filename D:\На телефон\НОВОЕ\Forgotten Metal Vol.7 - Heathens Rage+Mainiax+Thatcher.wav

     Peak level 90.4 %
     Range quality 99.9 %
     Copy CRC 25AECBF6
     Copy OK

No errors occurred


AccurateRip summary

Track  1  accurately ripped (confidence 1)  [F966A580]
Track  2  accurately ripped (confidence 1)  [976EF855]
Track  3  accurately ripped (confidence 1)  [21A950CB]
Track  4  accurately ripped (confidence 1)  [793E47AF]
Track  5  accurately ripped (confidence 1)  [B454D6B7]
Track  6  accurately ripped (confidence 1)  [56F6D1A0]
Track  7  accurately ripped (confidence 1)  [F9148E3F]
Track  8  accurately ripped (confidence 1)  [9E04201C]
Track  9  accurately ripped (confidence 1)  [45953398]
Track 10  accurately ripped (confidence 1)  [6F69B4F5]
Track 11  accurately ripped (confidence 1)  [7695CBB6]
Track 12  accurately ripped (confidence 1)  [B80A90AE]
Track 13  accurately ripped (confidence 1)  [E4E9359D]
Track 14  accurately ripped (confidence 1)  [E5DF5036]
Track 15  accurately ripped (confidence 1)  [9E5194DC]

All tracks accurately ripped

End of status report


Image

Vol. 08: Palass + Blacklist + Overlord
. . . Palass [1989] Queen Of The World
01. Queen Of The World
02. The Last Friday
03. Love Is Life
04. The Mutant
05. Devil Girl
06. Get Out
07. Heroes
08. The End
. . . Blacklist [1984] The Sign Of 4
09. Steady On The Steel
10. Confrontation
11. Sin Sentence
12. Revenge
. . . Overlord [1985] Overlord
13. X-Rated Man
14. Messiah Comes
15. Distant Orphan
16. Prelude / Endless Sun

EAC log
Code:
Exact Audio Copy V0.99 prebeta 5 from 4. May 2009

EAC extraction logfile from 7. August 2009, 17:31

Various / Forgotten Metal Vol. 08

Used drive  : HP      CD-Writer cd16b   Adapter: 4  ID: 0

Read mode               : Secure
Utilize accurate stream : Yes
Defeat audio cache      : Yes
Make use of C2 pointers : No

Read offset correction                      : 12
Overread into Lead-In and Lead-Out          : No
Fill up missing offset samples with silence : Yes
Delete leading and trailing silent blocks   : No
Null samples used in CRC calculations       : Yes
Used interface                              : Native Win32 interface for Win NT & 2000

Used output format : Internal WAV Routines
Sample format      : 44.100 Hz; 16 Bit; Stereo


TOC of the extracted CD

     Track |   Start  |  Length  | Start sector | End sector
    ---------------------------------------------------------
        1  |  0:00.00 |  5:09.19 |         0    |    23193   
        2  |  5:09.19 |  2:51.31 |     23194    |    36049   
        3  |  8:00.50 |  3:27.68 |     36050    |    51642   
        4  | 11:28.43 |  4:13.72 |     51643    |    70689   
        5  | 15:42.40 |  3:59.25 |     70690    |    88639   
        6  | 19:41.65 |  3:51.07 |     88640    |   105971   
        7  | 23:32.72 |  3:51.33 |    105972    |   123329   
        8  | 27:24.30 |  4:19.74 |    123330    |   142828   
        9  | 31:44.29 |  5:43.51 |    142829    |   168604   
       10  | 37:28.05 |  5:29.02 |    168605    |   193281   
       11  | 42:57.07 |  6:00.29 |    193282    |   220310   
       12  | 48:57.36 |  7:21.19 |    220311    |   253404   
       13  | 56:18.55 |  4:03.32 |    253405    |   271661   
       14  | 60:22.12 |  4:01.51 |    271662    |   289787   
       15  | 64:23.63 |  5:00.70 |    289788    |   312357   
       16  | 69:24.58 |  3:59.44 |    312358    |   330326   


Range status and errors

Selected range

     Filename G:\KL\VA [1993] Forgotten Metal Vol. 08\VA - Forgotten Metal Vol. 08.wav

     Peak level 91.5 %
     Range quality 100.0 %
     Copy CRC EF8F46AD
     Copy OK

No errors occurred


AccurateRip summary

Track  1  not present in database
Track  2  not present in database
Track  3  not present in database
Track  4  not present in database
Track  5  not present in database
Track  6  not present in database
Track  7  not present in database
Track  8  not present in database
Track  9  not present in database
Track 10  not present in database
Track 11  not present in database
Track 12  not present in database
Track 13  not present in database
Track 14  not present in database
Track 15  not present in database
Track 16  not present in database

None of the tracks are present in the AccurateRip database

End of status report


Image

Vol. 09: Hammer Witch + Trop Feross + Cassle
. . . Hammer Witch [1988] Return To Salem
01. Burned At The Stake
02. Psycho
03. Live For Metal
04. Brainchild
05. Judgement Day
06. Return To Salem
. . . Trop Feross [1986] Resurrection
07. Richard Coeur De Fer
08. Trop Fort
09. Caverne Du Roi
10. Chevalier Blanc
. . . Cassle [1983] Midnight Fantasy
11. My New Flame
12. Midnight Fantasy
13. Revenge
14. Power Drive

EAC log
Code:
Exact Audio Copy V0.99 prebeta 5 from 4. May 2009

EAC extraction logfile from 10. December 2010, 7:03

Forgotten Metal Vol.9 / Hammer Witch+Trop Feross+Cassle

Used drive  : TSSTcorpCDDVDW SH-S203D   Adapter: 1  ID: 1

Read mode               : Secure
Utilize accurate stream : Yes
Defeat audio cache      : Yes
Make use of C2 pointers : No

Read offset correction                      : 6
Overread into Lead-In and Lead-Out          : No
Fill up missing offset samples with silence : Yes
Delete leading and trailing silent blocks   : No
Null samples used in CRC calculations       : Yes
Used interface                              : Native Win32 interface for Win NT & 2000

Used output format : Internal WAV Routines
Sample format      : 44.100 Hz; 16 Bit; Stereo


TOC of the extracted CD

     Track |   Start  |  Length  | Start sector | End sector
    ---------------------------------------------------------
        1  |  0:00.00 |  5:23.47 |         0    |    24271   
        2  |  5:23.47 |  2:57.45 |     24272    |    37591   
        3  |  8:21.17 |  5:00.69 |     37592    |    60160   
        4  | 13:22.11 |  5:06.49 |     60161    |    83159   
        5  | 18:28.60 |  4:03.08 |     83160    |   101392   
        6  | 22:31.68 |  5:26.74 |    101393    |   125916   
        7  | 27:58.67 |  3:26.51 |    125917    |   141417   
        8  | 31:25.43 |  3:30.19 |    141418    |   157186   
        9  | 34:55.62 |  3:50.12 |    157187    |   174448   
       10  | 38:45.74 |  7:50.00 |    174449    |   209698   
       11  | 46:35.74 |  6:15.68 |    209699    |   237891   
       12  | 52:51.67 |  7:22.74 |    237892    |   271115   
       13  | 60:14.66 |  7:47.47 |    271116    |   306187   
       14  | 68:02.38 |  2:51.48 |    306188    |   319060   


Range status and errors

Selected range

     Filename D:\На телефон\НОВОЕ\Forgotten Metal Vol.9 - Hammer Witch+Trop Feross+Cassle.wav

     Peak level 89.9 %
     Range quality 99.9 %
     Copy CRC 0711465F
     Copy OK

No errors occurred


AccurateRip summary

Track  1  not present in database
Track  2  not present in database
Track  3  not present in database
Track  4  not present in database
Track  5  not present in database
Track  6  not present in database
Track  7  not present in database
Track  8  not present in database
Track  9  not present in database
Track 10  not present in database
Track 11  not present in database
Track 12  not present in database
Track 13  not present in database
Track 14  not present in database

None of the tracks are present in the AccurateRip database

End of status report


Image

Vol. 10: Crypt + White Hott + Kratos
. . . Crypt [1987] Stick To Your Guts
01. Metallust Fever
02. Castaways
03. Wings Of Omen
04. Darker Than Hell
05. Die Sister Die
06. Reich Master
07. March Of The Living Dead
08. Stick To Your Guts
. . . White Hott [1987] Angel In Leather
09. Runnin' For My Life
10. Bring Me The Night
11. Think Twice
12. Angel In Leather
13. Keeper Of The Flame
14. Sausage Commercial
. . . Kratos [1985] Iron Beast
15. Iron Beast
16. Armageddon
17. Chainsaw
18. Save Their Souls

EAC log
Code:
Exact Audio Copy V0.99 prebeta 5 from 4. May 2009

EAC extraction logfile from 10. December 2010, 23:03

Forgotten Metal Vol.10 / Crypt+White Hott+Kratos

Used drive  : TSSTcorpCDDVDW SH-S203D   Adapter: 1  ID: 1

Read mode               : Secure
Utilize accurate stream : Yes
Defeat audio cache      : Yes
Make use of C2 pointers : No

Read offset correction                      : 6
Overread into Lead-In and Lead-Out          : No
Fill up missing offset samples with silence : Yes
Delete leading and trailing silent blocks   : No
Null samples used in CRC calculations       : Yes
Used interface                              : Native Win32 interface for Win NT & 2000

Used output format : Internal WAV Routines
Sample format      : 44.100 Hz; 16 Bit; Stereo


TOC of the extracted CD

     Track |   Start  |  Length  | Start sector | End sector
    ---------------------------------------------------------
        1  |  0:00.00 |  5:08.16 |         0    |    23115   
        2  |  5:08.16 |  2:58.19 |     23116    |    36484   
        3  |  8:06.35 |  4:15.41 |     36485    |    55650   
        4  | 12:22.01 |  4:20.17 |     55651    |    75167   
        5  | 16:42.18 |  4:28.00 |     75168    |    95267   
        6  | 21:10.18 |  4:45.69 |     95268    |   116711   
        7  | 25:56.12 |  5:08.41 |    116712    |   139852   
        8  | 31:04.53 |  4:46.68 |    139853    |   161370   
        9  | 35:51.46 |  4:04.40 |    161371    |   179710   
       10  | 39:56.11 |  5:29.43 |    179711    |   204428   
       11  | 45:25.54 |  4:25.49 |    204429    |   224352   
       12  | 49:51.28 |  4:48.38 |    224353    |   245990   
       13  | 54:39.66 |  6:25.16 |    245991    |   274881   
       14  | 61:05.07 |  1:53.21 |    274882    |   283377   
       15  | 62:58.28 |  1:58.36 |    283378    |   292263   
       16  | 64:56.64 |  3:12.68 |    292264    |   306731   
       17  | 68:09.57 |  2:30.48 |    306732    |   318029   
       18  | 70:40.30 |  3:03.45 |    318030    |   331799   


Range status and errors

Selected range

     Filename D:\На телефон\НОВОЕ\Forgotten Metal Vol.10 - Crypt+White Hott+Kratos.wav

     Peak level 91.8 %
     Range quality 99.9 %
     Copy CRC 33331413
     Copy OK

No errors occurred


AccurateRip summary

Track  1  accurately ripped (confidence 1)  [AA8203CB]
Track  2  accurately ripped (confidence 1)  [126226EE]
Track  3  accurately ripped (confidence 1)  [6D3F4902]
Track  4  accurately ripped (confidence 1)  [DBED7B30]
Track  5  accurately ripped (confidence 1)  [7162B283]
Track  6  accurately ripped (confidence 1)  [17147336]
Track  7  accurately ripped (confidence 1)  [2B6DB3E6]
Track  8  accurately ripped (confidence 1)  [0305D624]
Track  9  accurately ripped (confidence 1)  [8C072F90]
Track 10  accurately ripped (confidence 1)  [A8E0374B]
Track 11  accurately ripped (confidence 1)  [979267EF]
Track 12  accurately ripped (confidence 1)  [8DF09FC9]
Track 13  accurately ripped (confidence 1)  [54144F26]
Track 14  accurately ripped (confidence 1)  [85958AD3]
Track 15  accurately ripped (confidence 1)  [CE5AD32F]
Track 16  accurately ripped (confidence 1)  [6D50F090]
Track 17  accurately ripped (confidence 1)  [85B259F2]
Track 18  accurately ripped (confidence 1)  [3C6B1B6D]

All tracks accurately ripped

End of status report


Image

Vol. 11: Graven Image + Tarantula + Breaker
. . . Graven Image [1987] Graven Image
01. Warn The Children
02. No Rest (For You)
03. The House
. . . Tarantula [1987] Tarantula
04. Battle Of Victory
05. Sons Of The Flame
06. Cry For The Spider
07. Adamastor (The Cape Of Storms)
08. Fear
09. Prophets Of Christendom
10. Escape From Heaven
11. The Court
. . . Breaker [1982] In Days Of Heavy Metal
12. Living Free
13. Satan's Lyre
14. Easyrider
15. In Days Of Heavy Metal

EAC log
Code:
Exact Audio Copy V0.99 prebeta 5 from 4. May 2009

EAC extraction logfile from 12. December 2010, 9:47

Frgotten Metal Vol.11 / Graven Image+Tarantula+Breaker

Used drive  : TSSTcorpCDDVDW SH-S203D   Adapter: 1  ID: 1

Read mode               : Secure
Utilize accurate stream : Yes
Defeat audio cache      : Yes
Make use of C2 pointers : No

Read offset correction                      : 6
Overread into Lead-In and Lead-Out          : No
Fill up missing offset samples with silence : Yes
Delete leading and trailing silent blocks   : No
Null samples used in CRC calculations       : Yes
Used interface                              : Native Win32 interface for Win NT & 2000

Used output format : Internal WAV Routines
Sample format      : 44.100 Hz; 16 Bit; Stereo


TOC of the extracted CD

     Track |   Start  |  Length  | Start sector | End sector
    ---------------------------------------------------------
        1  |  0:00.00 |  3:21.12 |         0    |    15086   
        2  |  3:21.12 |  3:41.37 |     15087    |    31698   
        3  |  7:02.49 |  3:06.70 |     31699    |    45718   
        4  | 10:09.44 |  5:21.28 |     45719    |    69821   
        5  | 15:30.72 |  3:09.70 |     69822    |    84066   
        6  | 18:40.67 |  4:48.63 |     84067    |   105729   
        7  | 23:29.55 |  6:27.64 |    105730    |   134818   
        8  | 29:57.44 |  5:53.69 |    134819    |   161362   
        9  | 35:51.38 |  5:49.01 |    161363    |   187538   
       10  | 41:40.39 |  7:03.06 |    187539    |   219269   
       11  | 48:43.45 |  2:19.57 |    219270    |   229751   
       12  | 51:03.27 |  4:12.11 |    229752    |   248662   
       13  | 55:15.38 |  4:12.69 |    248663    |   267631   
       14  | 59:28.32 |  4:02.19 |    267632    |   285800   
       15  | 63:30.51 | 10:45.31 |    285801    |   334206   


Range status and errors

Selected range

     Filename D:\На телефон\НОВОЕ\Frgotten Metal Vol.11 - Graven Image+Tarantula+Breaker.wav

     Peak level 91.8 %
     Range quality 99.9 %
     Copy CRC 7C15071E
     Copy OK

No errors occurred


AccurateRip summary

Track  1  accurately ripped (confidence 1)  [7740943F]
Track  2  accurately ripped (confidence 1)  [18C019C5]
Track  3  accurately ripped (confidence 1)  [BB4C4FC7]
Track  4  accurately ripped (confidence 1)  [51D0F52B]
Track  5  accurately ripped (confidence 1)  [2B3E2A8A]
Track  6  accurately ripped (confidence 1)  [77E6D5FE]
Track  7  accurately ripped (confidence 1)  [426FB3B8]
Track  8  accurately ripped (confidence 1)  [0E9BF08D]
Track  9  accurately ripped (confidence 1)  [B138B978]
Track 10  accurately ripped (confidence 1)  [C69E6C3B]
Track 11  accurately ripped (confidence 1)  [CC48BA3E]
Track 12  accurately ripped (confidence 1)  [D956DDDF]
Track 13  accurately ripped (confidence 1)  [242EF028]
Track 14  accurately ripped (confidence 1)  [0F19D385]
Track 15  accurately ripped (confidence 1)  [10FD4019]

All tracks accurately ripped

End of status report


Image

Vol. 12: Mysstress + Disciple + Mark Lowrey
. . . Mysstress [1986] Mysstress
01. Keep The Drive
02. No Way
03. Take On The World
04. Bump And Grind
. . . Disciple [1986] Disciple
05. Neck Breaking Woman
06. Here And Now
07. Tear Up The Night
08. Beloved Of The Butcher
09. Believe It Or Not
. . . Mark Lowrey [1985] Rusty Mark In The Metal Palace
10. Death & Destruction
11. Metal Madness
12. Heavy Metal Queen
13. Rockin' Memories
14. Purple Pyramid
15. I.M.S. (Iron, Metal, Steel)
16. Unsung Song
17. Seal Of Fate
18. Metal Legends

EAC log
Code:
Exact Audio Copy V0.99 prebeta 5 from 4. May 2009

EAC extraction logfile from 12. December 2010, 12:57

Forgotten Metal Vol.12 / Mysstress+Disciple+Mark Lowry

Used drive  : TSSTcorpCDDVDW SH-S203D   Adapter: 1  ID: 1

Read mode               : Secure
Utilize accurate stream : Yes
Defeat audio cache      : Yes
Make use of C2 pointers : No

Read offset correction                      : 6
Overread into Lead-In and Lead-Out          : No
Fill up missing offset samples with silence : Yes
Delete leading and trailing silent blocks   : No
Null samples used in CRC calculations       : Yes
Used interface                              : Native Win32 interface for Win NT & 2000

Used output format : Internal WAV Routines
Sample format      : 44.100 Hz; 16 Bit; Stereo


TOC of the extracted CD

     Track |   Start  |  Length  | Start sector | End sector
    ---------------------------------------------------------
        1  |  0:00.00 |  3:25.36 |         0    |    15410   
        2  |  3:25.36 |  5:02.61 |     15411    |    38121   
        3  |  8:28.22 |  4:36.02 |     38122    |    58823   
        4  | 13:04.24 |  3:14.23 |     58824    |    73396   
        5  | 16:18.47 |  4:25.68 |     73397    |    93339   
        6  | 20:44.40 |  3:02.49 |     93340    |   107038   
        7  | 23:47.14 |  3:42.04 |    107039    |   123692   
        8  | 27:29.18 |  4:28.31 |    123693    |   143823   
        9  | 31:57.49 |  4:38.40 |    143824    |   164713   
       10  | 36:36.14 |  3:39.49 |    164714    |   181187   
       11  | 40:15.63 |  4:48.68 |    181188    |   202855   
       12  | 45:04.56 |  4:39.44 |    202856    |   223824   
       13  | 49:44.25 |  5:11.17 |    223825    |   247166   
       14  | 54:55.42 |  1:51.52 |    247167    |   255543   
       15  | 56:47.19 |  3:33.54 |    255544    |   271572   
       16  | 60:20.73 |  4:13.48 |    271573    |   290595   
       17  | 64:34.46 |  6:32.11 |    290596    |   320006   
       18  | 71:06.57 |  5:41.66 |    320007    |   345647   


Range status and errors

Selected range

     Filename D:\На телефон\НОВОЕ\Forgotten Metal Vol.12 - Mysstress+Disciple+Mark Lowry.wav

     Peak level 91.3 %
     Range quality 100.0 %
     Copy CRC DA1501EC
     Copy OK

No errors occurred


AccurateRip summary

Track  1  accurately ripped (confidence 1)  [9FA22B92]
Track  2  accurately ripped (confidence 1)  [25E66EEA]
Track  3  accurately ripped (confidence 1)  [604D5A45]
Track  4  accurately ripped (confidence 1)  [7F54E353]
Track  5  accurately ripped (confidence 1)  [9B8E1E1B]
Track  6  accurately ripped (confidence 1)  [A7C681E2]
Track  7  accurately ripped (confidence 1)  [4B32EE80]
Track  8  accurately ripped (confidence 1)  [07E40A91]
Track  9  accurately ripped (confidence 1)  [55319BD1]
Track 10  accurately ripped (confidence 1)  [02C9F5B9]
Track 11  accurately ripped (confidence 1)  [A55E3754]
Track 12  accurately ripped (confidence 1)  [377492EB]
Track 13  accurately ripped (confidence 1)  [F8D5A758]
Track 14  accurately ripped (confidence 1)  [F2CB6DBB]
Track 15  accurately ripped (confidence 1)  [56AB6342]
Track 16  accurately ripped (confidence 1)  [D22AC9A1]
Track 17  accurately ripped (confidence 1)  [BC738D48]
Track 18  accurately ripped (confidence 1)  [F24340BF]

All tracks accurately ripped

End of status report


Image

Vol. 13: Child Saint + Proud Existence + Shelder
. . . Child Saint [1988] Child Saint
01. I Am Future
02. Child Saint
. . . Proud Existence [1984] The Trial
03. Right Time To Die
04. Deliver Or Kill
05. Fast Ride
06. The Trial
07. Castles In Black
08. Thou Wilt Be Avenged
. . . Shelder [1988] God Of Vikings
09. God Of Vikings
10. Randy Rhoads
11. Star Mythique
12. Stranger Solitaire
13. Shelder
14. Rock'n'Roll Star
15. Manilla

EAC log
Code:
Exact Audio Copy V0.99 prebeta 5 from 4. May 2009

EAC extraction logfile from 12. December 2010, 13:27

Forgotten Metal Vol.13 / Child Saint+Proud Existence+Shelder

Used drive  : TSSTcorpCDDVDW SH-S203D   Adapter: 1  ID: 1

Read mode               : Secure
Utilize accurate stream : Yes
Defeat audio cache      : Yes
Make use of C2 pointers : No

Read offset correction                      : 6
Overread into Lead-In and Lead-Out          : No
Fill up missing offset samples with silence : Yes
Delete leading and trailing silent blocks   : No
Null samples used in CRC calculations       : Yes
Used interface                              : Native Win32 interface for Win NT & 2000

Used output format : Internal WAV Routines
Sample format      : 44.100 Hz; 16 Bit; Stereo


TOC of the extracted CD

     Track |   Start  |  Length  | Start sector | End sector
    ---------------------------------------------------------
        1  |  0:00.00 |  5:00.47 |         0    |    22546   
        2  |  5:00.47 |  5:25.23 |     22547    |    46944   
        3  | 10:25.70 |  6:29.22 |     46945    |    76141   
        4  | 16:55.17 |  7:56.31 |     76142    |   111872   
        5  | 24:51.48 |  3:50.46 |    111873    |   129168   
        6  | 28:42.19 |  7:42.55 |    129169    |   163873   
        7  | 36:24.74 |  4:56.05 |    163874    |   186078   
        8  | 41:21.04 |  5:47.05 |    186079    |   212108   
        9  | 47:08.09 |  5:00.59 |    212109    |   234667   
       10  | 52:08.68 |  1:26.00 |    234668    |   241117   
       11  | 53:34.68 |  4:49.73 |    241118    |   262865   
       12  | 58:24.66 |  4:01.43 |    262866    |   280983   
       13  | 62:26.34 |  4:14.51 |    280984    |   300084   
       14  | 66:41.10 |  6:14.39 |    300085    |   328173   
       15  | 72:55.49 |  5:04.68 |    328174    |   351041   


Range status and errors

Selected range

     Filename D:\На телефон\НОВОЕ\Forgotten Metal Vol.13 - Child Saint+Proud Existence+Shelder.wav

     Peak level 100.0 %
     Range quality 99.9 %
     Copy CRC 495A2A59
     Copy OK

No errors occurred


AccurateRip summary

Track  1  accurately ripped (confidence 1)  [693B69FB]
Track  2  accurately ripped (confidence 1)  [2F3EE1DC]
Track  3  accurately ripped (confidence 1)  [4A370588]
Track  4  accurately ripped (confidence 1)  [6325B0F2]
Track  5  accurately ripped (confidence 1)  [C084851E]
Track  6  accurately ripped (confidence 1)  [3CDD03CF]
Track  7  accurately ripped (confidence 1)  [36BAFEBA]
Track  8  accurately ripped (confidence 1)  [3166635D]
Track  9  accurately ripped (confidence 1)  [5E650453]
Track 10  accurately ripped (confidence 1)  [AF37D01B]
Track 11  accurately ripped (confidence 1)  [DE92D70E]
Track 12  accurately ripped (confidence 1)  [600F70E5]
Track 13  accurately ripped (confidence 1)  [E8208212]
Track 14  accurately ripped (confidence 1)  [C1BDDB7A]
Track 15  accurately ripped (confidence 1)  [17B21543]

All tracks accurately ripped

End of status report


Image

Vol. 14: Ion Britton + Danger Zone + Mistreated
. . . Ion Britton [1987] Eat Metal
01. Illusionation
02. Eat Metal
03. Mind Grind
04. Nite Frite
. . . Danger Zone [1984] Victim Of Time
05. Victim Of Time
06. Doctor Freak
07. Wolfox
08. I'm Waiting For You
09. Dragon's Lair
10. Land Of The Ancient Bones
. . . Mistreated [1988] Premiere Intervention
11. Rock To Night
12. Exil
13. Un Jour Qui Passe
14. Rock Star
15. Liberte
16. Intervention
17. Sale Histoire
18. Fille De Fer

EAC log
отсутствует


Image

Vol. 15: Militia + Iron Cross + Childhoods End
. . . Militia [1986] The Sybling
01. Objective: Termination
02. Salem Square
03. The Sybling
. . . Militia [1985] Regiments Of Death
04. Metal Axe
05. Regiments Of Death
06. Search For Steel
. . . Iron Cross [1985] Warhead
07. Set Your Sites
08. Slaughter House
09. Waiting For The Axe
10. Warhead
11. F.K.Z.
12. Send For The Cross
13. Come And Get It
14. Chain Gang
15. Cold Steel
16. Crucible
. . . Childhood's End [1984] Childhood's End
17. (You Better) Run For Tomorrow
18. Out On Your Own
19. Always Near
20. Eulogy

EAC log
Code:
Exact Audio Copy V0.99 prebeta 5 from 4. May 2009

EAC extraction logfile from 5. November 2010, 11:40

Forgotten Metal vol.15 / Militia+Iron Cross+Childhood's end

Used drive  : TSSTcorpCDDVDW SH-S203D   Adapter: 1  ID: 1

Read mode               : Secure
Utilize accurate stream : Yes
Defeat audio cache      : Yes
Make use of C2 pointers : No

Read offset correction                      : 6
Overread into Lead-In and Lead-Out          : No
Fill up missing offset samples with silence : Yes
Delete leading and trailing silent blocks   : No
Null samples used in CRC calculations       : Yes
Used interface                              : Native Win32 interface for Win NT & 2000

Used output format : Internal WAV Routines
Sample format      : 44.100 Hz; 16 Bit; Stereo


TOC of the extracted CD

     Track |   Start  |  Length  | Start sector | End sector
    ---------------------------------------------------------
        1  |  0:00.00 |  4:33.08 |         0    |    20482   
        2  |  4:33.08 |  4:25.63 |     20483    |    40420   
        3  |  8:58.71 |  6:22.37 |     40421    |    69107   
        4  | 15:21.33 |  4:23.52 |     69108    |    88884   
        5  | 19:45.10 |  3:35.07 |     88885    |   105016   
        6  | 23:20.17 |  3:42.65 |    105017    |   121731   
        7  | 27:03.07 |  3:05.49 |    121732    |   135655   
        8  | 30:08.56 |  2:33.07 |    135656    |   147137   
        9  | 32:41.63 |  2:57.53 |    147138    |   160465   
       10  | 35:39.41 |  4:10.01 |    160466    |   179216   
       11  | 39:49.42 |  3:29.49 |    179217    |   194940   
       12  | 43:19.16 |  2:23.57 |    194941    |   205722   
       13  | 45:42.73 |  2:35.59 |    205723    |   217406   
       14  | 48:18.57 |  3:09.08 |    217407    |   231589   
       15  | 51:27.65 |  3:45.08 |    231590    |   248472   
       16  | 55:12.73 |  3:14.08 |    248473    |   263030   
       17  | 58:27.06 |  4:39.13 |    263031    |   283968   
       18  | 63:06.19 |  4:17.28 |    283969    |   303271   
       19  | 67:23.47 |  4:24.54 |    303272    |   323125   
       20  | 71:48.26 |  3:46.22 |    323126    |   340097   


Range status and errors

Selected range

     Filename D:\На телефон\НОВОЕ\Forgotten Metal vol.15 - Militia+Iron Cross+Childhood's end.wav

     Peak level 92.2 %
     Range quality 99.9 %
     Copy CRC 7B1724DF
     Copy OK

No errors occurred


AccurateRip summary

Track  1  not present in database
Track  2  not present in database
Track  3  not present in database
Track  4  not present in database
Track  5  not present in database
Track  6  not present in database
Track  7  not present in database
Track  8  not present in database
Track  9  not present in database
Track 10  not present in database
Track 11  not present in database
Track 12  not present in database
Track 13  not present in database
Track 14  not present in database
Track 15  not present in database
Track 16  not present in database
Track 17  not present in database
Track 18  not present in database
Track 19  not present in database
Track 20  not present in database

None of the tracks are present in the AccurateRip database

End of status report


Image

Vol. 16: Masque + Stream + Grand Bite
. . . Masque [1988] The Dead Of Night
01. Twisted Tales
02. Confined Insanity
03. Back With A Vengeance
04. The Dead Of Night
05. No Light To Die By
. . . Stream [1988] Outside World Within
06. Unreal
07. Shadowland
08. Electric Rage
09. Generation
. . . Grand Bite [1985] Al Borde Del Precipicio
10. De Cuello Blanco
11. Te Pierdo
12. Otra Luz
13. Vuela
14. Demonios En El Cielo
15. Reincidiras
16. Larga Vida Al Rock & Roll
17. Cangrejo
18. Te Diste Cuenta
19. Por Un Poco De Libertad

EAC log
Code:
Отчёт EAC об извлечении, выполненном 16. июля 2011, 20:32 для диска:
Masque / Stream / Grand Bite / Forgotten Metal Vol. 16

Дисковод: TSSTcorpCD/DVDW SH-S182D   Adapter: 0  ID: 0
Режим чтения: Достоверный (C2: нет, Точный поток: да, Отключение кэша: да)
Коррекция смещения при чтении: 6
Способность читать области Lead-in и Lead-out : Нет

Выходной формат: Внутренние WAV-операции
                     44.100 Гц; 16 бит; стерео

Другие параметры:
    Заполнение пропущенных сэмплов тишиной : Да
    Удаление блоков с тишиной в начале и конце : Нет
    Установленный внешний ASPI-интерфейс


Характеристики диапазона извлечения и сообщения об ошибках
Выбранный диапазон
     Имя файла D:\музыка new\Forgotten Metal Vol. 16\Masque   Stream   Grand Bite - Forgotten Metal Vol. 16.wav

     Пиковый уровень 90.1 %
     Качество диапазона 100.0 %
     CRC D75C48BC
     Копирование... OK

Ошибок не произошло

Конец отчёта


Image

Vol. 17: Avalon + Wyxmer + Thor
. . . Avalon [1986] The Third Move
01. The Courts Of Chaos
02. Dancer In The Eye Of The Storm
03. Hard Loving Man
04. Arabesque
05. Perfect Illusions
06. Necronomicon
. . . Wyxmer [1991] The Syre Of
07. Human Crime
08. I Will Rise Again
09. King Of The Ladies
10. Steed 'n' Cavalier
. . . Thor [1985] El Pacto
11. Emisario De Satan
12. Hacer El Mal
13. El Pacto
14. Anticristo
15. Soy La Muerte
16. Ratas
17. Siglo XV
18. Transilvania
19. Blasfemias

EAC log
Code:
Отчёт EAC об извлечении, выполненном 24. января 2011, 13:53 для диска:
AVALON/WYXMER/THOR / OUTSTANDING METAL GEMS Vol. 17

Дисковод: TSSTcorpCD/DVDW SH-S182D   Adapter: 0  ID: 0
Режим чтения: Достоверный (C2: нет, Точный поток: да, Отключение кэша: да)
Коррекция смещения при чтении: 6
Способность читать области Lead-in и Lead-out : Нет

Выходной формат: Внутренние WAV-операции
                     44.100 Гц; 16 бит; стерео

Другие параметры:
    Заполнение пропущенных сэмплов тишиной : Да
    Удаление блоков с тишиной в начале и конце : Нет
    Установленный внешний ASPI-интерфейс


Характеристики диапазона извлечения и сообщения об ошибках
Выбранный диапазон
     Имя файла C:\Program Files\загрузки\OUTSTANDING METAL GEMS Vol. 17\AVALON WYXMER THOR - OUTSTANDING METAL GEMS Vol. 17.wav

     Пиковый уровень 100.0 %
     Качество диапазона 100.0 %
     CRC A294920C
     Копирование... OK

Ошибок не произошло

Конец отчёта


Image

Vol. 18: Parasite + Wild Pussy + Ritual(Widow)
. . . Parasite [1984] Parasite
01. In The Beginning
02. Burnin'
03. Nightwinds
04. Chalice Of The Soul
05. Lonely Eagle
. . . Wild Pussy [1989] Mechanarchy
06. Ready To Strike
07. Hatred
08. The Vigil
09. EvilSpeak
. . . Ritual [1983] Widow
10. Widow
11. Come To The Ritual
12. Rebecca
13. Rebecca Outro
14. Never For Evil
15. Morning Star
16. Journey
17. Burning

EAC log
Code:
Exact Audio Copy V1.0 beta 3 from 29. August 2011

Отчёт EAC об извлечении, выполненном 2. декабря 2014, 8:48

Unknown Artist / Unknown Title

Дисковод: ASUS    DRW-24B5ST   Adapter: 1  ID: 0

Режим чтения                 : Достоверность
Использование точного потока : Да
Отключение кэша аудио        : Да
Использование указателей C2  : Нет

Коррекция смещения при чтении                     : 6
Способность читать области Lead-in и Lead-out     : Нет
Заполнение пропущенных сэмплов тишиной            : Да
Удаление блоков с тишиной в начале и конце        : Нет
При вычислениях CRC использовались нулевые сэмплы : Да
Интерфейс                                         : Встроенный Win32-интерфейс для Win NT/2000

Выходной формат          : Пользовательский кодировщик
Выбранный битрейт        : 128 kBit/s
Качество                 : Высокий
Добавление ID3-тега      : Нет
Утилита сжатия           : C:\Program Files\Exact Audio Copy\Flac\flac.exe


TOC извлечённого CD

     Трек |   Старт  | Длительность | Начальный сектор | Конечный сектор
    ---------------------------------------------------------------------
       1  |  0:00.00 |    1:01.25   |           0      |       4599     
       2  |  1:01.25 |    2:54.51   |        4600      |      17700     
       3  |  3:56.01 |    5:28.13   |       17701      |      42313     
       4  |  9:24.14 |    3:57.42   |       42314      |      60130     
       5  | 13:21.56 |    5:26.45   |       60131      |      84625     
       6  | 18:48.26 |    4:49.26   |       84626      |     106326     
       7  | 23:37.52 |    5:05.52   |      106327      |     129253     
       8  | 28:43.29 |    6:43.57   |      129254      |     159535     
       9  | 35:27.11 |    6:12.33   |      159536      |     187468     
      10  | 41:39.44 |    7:22.33   |      187469      |     220651     
      11  | 49:02.02 |    3:55.52   |      220652      |     238328     
      12  | 52:57.54 |    3:32.17   |      238329      |     254245     
      13  | 56:29.71 |    3:30.30   |      254246      |     270025     
      14  | 60:00.26 |    3:31.28   |      270026      |     285878     
      15  | 63:31.54 |    4:41.26   |      285879      |     306979     
      16  | 68:13.05 |    3:44.14   |      306980      |     323793     
      17  | 71:57.19 |    4:13.22   |      323794      |     342790     


Характеристики диапазона извлечения и сообщения об ошибках

Выбранный диапазон

     Имя файла D:\Zona Download\Forgotten Metal Vol.18.wav

     Пиковый уровень 96.0 %
     Скорость извлечения 10.2 X
     Качество диапазона 100.0 %
     CRC теста 5F8E5CEB
     CRC копии 5F8E5CEB
     Копирование... OK

Ошибок не произошло

Конец отчёта

==== Контрольная сумма отчёта AA545BDC7BE423620D31F084191AC0FDA513806F4CD2081411EE50B9B2026E75 ====


Итак, все выпуски этой серии наконец собраны. Огромная благодарность за рипы Максу overkiller, Павлу hawkhunter (за выпуски 1, 3, 16 и 17), Роману odu (за 14-й и 18-й), а также нашему французскому коллеге ShyBeast (за 5-й и 8-й) :thanx: :drink:

з.ы. картинки кликабельны :oops:

Зеркало на все выпуски (спасибо Владимиру 32warlord1): Cloud.Mail.Ru

_________________
прокъметол - это музыко, от которово есть прок (ы)


Last edited by spiralarch on 02 Dec 2014, edited 7 times in total.

Top
 Profile  
 
 
PostPosted: 14 May 2012 
Прокъмитолист
User avatar
Joined: 12 Aug 2007
Posts: 6600
Lоcаtion: Санктъ-Петербуркъ
Age: 51
Name: Олекъ
ссылки на 2-ой и 15-ый выпуски в главном посте заменены. попробуйте скачать и распаковать, а то я что-то не уверен в народе сейчас: несколько раз выдает ошибку загрузки, а потом в акаунте появляются несколько одинаковых файлов :vic:

_________________
прокъметол - это музыко, от которово есть прок (ы)


Top
 Profile  
 
 
PostPosted: 14 May 2012 
Хиппей (support team)
User avatar
Joined: 30 Jul 2007
Posts: 114364
Lоcаtion: Киев (Kyiv, UA)
Age: 46
Name: Andrey
Олег, спасибо :thanx: Проверяю.

_________________


Top
 Profile E-mail  
 
 
PostPosted: 14 May 2012 
Хиппей (support team)
User avatar
Joined: 30 Jul 2007
Posts: 114364
Lоcаtion: Киев (Kyiv, UA)
Age: 46
Name: Andrey
Всё отлично. Переливаю :true:

_________________


Top
 Profile E-mail  
 
 
PostPosted: 14 May 2012 
Хиппей (support team)
User avatar
Joined: 30 Jul 2007
Posts: 114364
Lоcаtion: Киев (Kyiv, UA)
Age: 46
Name: Andrey
Обновил ссылочки на 3-й страничке :arrow: viewtopic.php?p=131424#p131424
Кстати, а с последним сборником что у нас? :oops:

_________________


Top
 Profile E-mail  
 
 
PostPosted: 14 May 2012 
Прокъмитолист
User avatar
Joined: 12 Aug 2007
Posts: 6600
Lоcаtion: Санктъ-Петербуркъ
Age: 51
Name: Олекъ
Scatterbrain wrote:
Кстати, а с последним сборником что у нас?

ровно то, что написано в конце заглавного поста :pardon:

_________________
прокъметол - это музыко, от которово есть прок (ы)


Top
 Profile  
 
 
PostPosted: 14 May 2012 
Хиппей (support team)
User avatar
Joined: 30 Jul 2007
Posts: 114364
Lоcаtion: Киев (Kyiv, UA)
Age: 46
Name: Andrey
spiralarch wrote:
написано в конце

Мдя, чёта я протупил :umnik:

_________________


Top
 Profile E-mail  
 
 
PostPosted: 16 May 2012 
Пионэръ
Joined: 24 Apr 2012
Posts: 18
Lоcаtion: Russia
Name: Boris
:thanx:
Премного благодарен!


Top
 Profile E-mail  
 
 
PostPosted: 20 May 2012 
ТрэшЭрос
User avatar
Joined: 18 Jul 2011
Posts: 2304
Lоcаtion: Гулькевичи
Age: 44
Name: Александр
Шото у мя никуя не сростается в Vol. 01: Exodo + Inherent Sin + IronHawk
По официозу у "Exodo" в "The New Babylon" (1988) такой трэклист:
1. Groups Of Defense 05:02
2. The New Babylon 04:00
3. Sex 03:51
4. Born To Be WIld 02:57
5. Just One Day 04:03
6. Thunders In The City (Steppenwolf cover) 04:21
7. Sons Of The Night 03:37
8. Heart In Flames 05:33
Общее время: 33:24

По факту же получаеЦЦо, шо трэк №3 Sex исчез! :umnik:
Разрезав усё (vol. 1) вышло 15 трэков и какой-то бонус :vic: (не 03. Sex)
Хтонить обоснячить, шо цетаке??? :oops:

_________________
Thrash no trash!!!


Top
 Profile E-mail  
 
 
PostPosted: 20 May 2012 
Прокъмитолист
User avatar
Joined: 12 Aug 2007
Posts: 6600
Lоcаtion: Санктъ-Петербуркъ
Age: 51
Name: Олекъ
проверил третью песнь с этого сборника по тексту с метал-архивов - самый настоящий Sex :pardon:

_________________
прокъметол - это музыко, от которово есть прок (ы)


Top
 Profile  
 
 
PostPosted: 20 May 2012 
ТрэшЭрос
User avatar
Joined: 18 Jul 2011
Posts: 2304
Lоcаtion: Гулькевичи
Age: 44
Name: Александр
spiralarch, значиЦЦО, енто был сдвих??? Трэк №3 обозван погонялом трэка №4 и т.д.? А бонус - вовсе не бонус??? :dash:

У меня после резака такая картинко:
Image

_________________
Thrash no trash!!!


Top
 Profile E-mail  
 
 
PostPosted: 20 May 2012 
Прокъмитолист
User avatar
Joined: 12 Aug 2007
Posts: 6600
Lоcаtion: Санктъ-Петербуркъ
Age: 51
Name: Олекъ
Саш, я обычно проверяю то, что собираюсь запостить. если я привел такой трэклист (16 трэков), значит так оно и есть. я уже сейчас не вспомню, как дело было, но похоже, что куй я потом для себя отредактировал:
cue
Code:
REM GENRE "Heavy Metal"
REM DATE 1993
REM DISCID E30FDA10
REM COMMENT "ExactAudioCopy v0.95b4"
PERFORMER "VA"
TITLE "Forgotten Metal Vol. 01"
FILE "CDImage.ape" WAVE
  TRACK 01 AUDIO
    TITLE "Groups Of Defence"
    PERFORMER "Exodo"
    INDEX 01 00:00:00
  TRACK 02 AUDIO
    TITLE "The New Babylon"
    PERFORMER "Exodo"
    INDEX 01 05:04:64
  TRACK 03 AUDIO
    TITLE "Sex"
    PERFORMER "Exodo"
    INDEX 01 09:07:19
  TRACK 04 AUDIO
    TITLE "Born To Be Wild"
    PERFORMER "Exodo"
    INDEX 01 12:59:42
  TRACK 05 AUDIO
    TITLE "Just One Day"
    PERFORMER "Exodo"
    INDEX 01 15:58:64
  TRACK 06 AUDIO
    TITLE "Thunders In The City"
    PERFORMER "Exodo"
    INDEX 01 20:03:49
  TRACK 07 AUDIO
    TITLE "Sons Of The Night"
    PERFORMER "Exodo"
    INDEX 01 24:26:64
  TRACK 08 AUDIO
    TITLE "Heart In Flames"
    PERFORMER "Exodo"
    INDEX 01 28:06:24
  TRACK 09 AUDIO
    TITLE "Children Of The Night"
    PERFORMER "Inherent Sin"
    INDEX 01 33:40:05
  TRACK 10 AUDIO
    TITLE "Gates Of Hell"
    PERFORMER "Inherent Sin"
    INDEX 01 37:33:20
  TRACK 11 AUDIO
    TITLE "It's Never Too Late"
    PERFORMER "Inherent Sin"
    INDEX 01 41:16:55
  TRACK 12 AUDIO
    TITLE "Starlight"
    PERFORMER "Inherent Sin"
    INDEX 01 45:08:42
  TRACK 13 AUDIO
    TITLE "More Of The Same"
    PERFORMER "IronHawk"
    INDEX 01 49:14:57
  TRACK 14 AUDIO
    TITLE "Locked Away"
    PERFORMER "IronHawk"
    INDEX 01 53:26:51
  TRACK 15 AUDIO
    TITLE "Dreams Of Fortune"
    PERFORMER "IronHawk"
    INDEX 01 59:11:44
  TRACK 16 AUDIO
    TITLE "Cry Out"
    PERFORMER "IronHawk"
    INDEX 01 63:49:14

_________________
прокъметол - это музыко, от которово есть прок (ы)


Top
 Profile  
 
 
PostPosted: 21 May 2012 
Хиппей (support team)
User avatar
Joined: 30 Jul 2007
Posts: 114364
Lоcаtion: Киев (Kyiv, UA)
Age: 46
Name: Andrey
Ой, да слушайте вы лосей с мабилок, всё равно тут качество ужасть какое :yyy:

_________________


Top
 Profile E-mail  
 
 
PostPosted: 21 May 2012 
ТрэшЭрос
User avatar
Joined: 18 Jul 2011
Posts: 2304
Lоcаtion: Гулькевичи
Age: 44
Name: Александр
spiralarch wrote:
...куй я потом отредактировал...

Всё дело - в куе! :oops: Ибо в куе - наша сила, мужЫки!!! :true: :true: :true:

_________________
Thrash no trash!!!


Top
 Profile E-mail  
 
 
PostPosted: 21 May 2012 
ТрэшЭрос
User avatar
Joined: 18 Jul 2011
Posts: 2304
Lоcаtion: Гулькевичи
Age: 44
Name: Александр
Scatterbrain wrote:
...слушайте лосей с мабилок...

Саныч, моя (импортная, китайская!) мабилка не может озвучивать тресхмитол, т.к. ентой хунктции у ней нема, нах... :oops: Вотъ и пряходиЦЦо СиДировать record :losik: потрехова...

_________________
Thrash no trash!!!


Top
 Profile E-mail  
 
 
PostPosted: 22 May 2012 
Хиппей (support team)
User avatar
Joined: 30 Jul 2007
Posts: 114364
Lоcаtion: Киев (Kyiv, UA)
Age: 46
Name: Andrey
Хм, тогда можно в миди лося перевести :dance:

_________________


Top
 Profile E-mail  
 
 
PostPosted: 22 May 2012 
ТрэшЭрос
User avatar
Joined: 18 Jul 2011
Posts: 2304
Lоcаtion: Гулькевичи
Age: 44
Name: Александр
Оболваненый кругляш с удовольствием вращается вокруг своей оси в CD-приёмнике издавая при этом тяжёлые звуки :meloman: извлечённые из Image


:thanx: всем!!! :dance:

_________________
Thrash no trash!!!


Top
 Profile E-mail  
 
 
PostPosted: 22 May 2012 
Прокъмитолист
User avatar
Joined: 12 Aug 2007
Posts: 6600
Lоcаtion: Санктъ-Петербуркъ
Age: 51
Name: Олекъ
хм. Саш, я правильно тебя понял: ты резал лося на трэки для того, чтобы записать цд? :shok:

_________________
прокъметол - это музыко, от которово есть прок (ы)


Top
 Profile  
 
 
PostPosted: 22 May 2012 
Хиппей (support team)
User avatar
Joined: 30 Jul 2007
Posts: 114364
Lоcаtion: Киев (Kyiv, UA)
Age: 46
Name: Andrey
spiralarch wrote:
ты резал лося на трэки

По ходу, так и было :shok: :thor:

_________________


Top
 Profile E-mail  
 
 
PostPosted: 22 May 2012 
ТрэшЭрос
User avatar
Joined: 18 Jul 2011
Posts: 2304
Lоcаtion: Гулькевичи
Age: 44
Name: Александр
spiralarch wrote:
для того, чтобы


Yes, of course :oops: А шо? :shok:

_________________
Thrash no trash!!!


Top
 Profile E-mail  
 
 
PostPosted: 22 May 2012 
Прокъмитолист
User avatar
Joined: 12 Aug 2007
Posts: 6600
Lоcаtion: Санктъ-Петербуркъ
Age: 51
Name: Олекъ
MetallicAS wrote:
А шо?

а зочемъ?
viewtopic.php?f=209&t=1708

_________________
прокъметол - это музыко, от которово есть прок (ы)


Top
 Profile  
 
Display posts from previous:  Sort by  
Post new topic Reply to topic  [ 169 posts ]  Go to page Previous  1, 2, 3, 4, 5, 6, 7 ... 9  Next

All times are UTC + 3 hours


Who is online

Users browsing this forum: No registered users and 1 guest


You cannot post new topics in this forum
You cannot reply to topics in this forum
You cannot edit your posts in this forum
You cannot delete your posts in this forum
You cannot post attachments in this forum

Search for:
Яндекс.Метрика
Powered by phpBB © 2000, 2002, 2005, 2007 phpBB Group