\m/ 80's metal \m/

Информационно-аналитический форум "80 см пыли" (In Search We Trust) "У нас никто никуда не спешит"
Me For You - http://me-4u.com
It is currently 26 Jun 2019

All times are UTC + 3 hours

Spoiler
Chat - temporary registration for foreign users (please leave your application here)







Post new topic Reply to topic  [ 39 posts ]  Go to page 1, 2  Next
Author Message
 
PostPosted: 12 Nov 2010 
5-speed satisfactor
User avatar
Joined: 16 Feb 2009
Posts: 3737
Lоcаtion: New York, USA
Age: 41
Name: Leonid
http://www.megaupload.com/?d=J6PDGHLG

_________________
Death rules! Metal to all who oppose!


Top
 Profile  
 
 
PostPosted: 12 Nov 2010 
Прокъмитолист
User avatar
Joined: 12 Aug 2007
Posts: 6565
Lоcаtion: Санктъ-Петербуркъ
Age: 51
Name: Олекъ
Лёня, с возвращением! и спасибо за лосика! :true:

_________________
прокъметол - это музыко, от которово есть прок (ы)


Top
 Profile  
 
 
PostPosted: 12 Nov 2010 
А может смените мне статус?..
User avatar
Joined: 17 Jan 2008
Posts: 884
Lоcаtion: Пенза
Age: 41
Name: Денис
С возращением Леонид!!!! :true: :true: :true:
Ну и конечно спасибо за рипы :thanx:


Top
 Profile  
 
 
PostPosted: 12 Nov 2010 
Motörheadache
User avatar
Joined: 04 Feb 2010
Posts: 1294
Lоcаtion: Впереди- горы,позади-степи
Age: 46
Name: Александр
Леонид ! С возвращением !

_________________
Eine Nation, Ein Land, Eine Schnaps!

Наш священный долг:защищать Родину,и соблюдать правила личной гигиены....!


Top
 Profile E-mail  
 
 
PostPosted: 12 Nov 2010 
5-speed satisfactor
User avatar
Joined: 16 Feb 2009
Posts: 3737
Lоcаtion: New York, USA
Age: 41
Name: Leonid
Не за что. А и + cue. Я забыл. :)

_________________
Death rules! Metal to all who oppose!


Top
 Profile  
 
 
PostPosted: 12 Nov 2010 
Thrasher
User avatar
Joined: 07 Oct 2007
Posts: 2760
Lоcаtion: Russia, Moscow
Age: 35
Name: Drunk & Evil
о с возвращением, есть шанс что закончим начатое дельце))

_________________
ВОДКА, БАБЫ И БЛЮЗ / 40° till death... :bodun:
One time we saw some hookers, but when we got closer, we realised it was Mötley Crüe. ©


Top
 Profile  
 
 
PostPosted: 12 Nov 2010 
А может смените мне статус?..
User avatar
Joined: 22 Nov 2008
Posts: 970
Lоcаtion: Schelcovo,Russia
Age: 47
Name: Сергей
:true: :true: :true:


Top
 Profile  
 
 
PostPosted: 12 Nov 2010 
Metal Collector
User avatar
Joined: 16 Nov 2008
Posts: 1242
Lоcаtion: Химки
Age: 36
Name: Андрей
Вааау, Леонид! С возвращением и спасибо, что не забыл про своё обещание ;)


Top
 Profile E-mail  
 
 
PostPosted: 12 Nov 2010 
5cm
User avatar
Joined: 01 Mar 2009
Posts: 61
Name: Сергей
metaleonid, можно побольше информации о выложеном (треклист, логфайл,год выпуска, лейбл и тд.) ?


Top
 Profile  
 
 
PostPosted: 13 Nov 2010 
Хиппей (support team)
User avatar
Joined: 30 Jul 2007
Posts: 113133
Lоcаtion: Киев (Kyiv, UA)
Age: 46
Name: Andrey
:hi: :true:

Лёня, с возвращением :dance:

Да, пост более чем скромно выглядит без привычного наполнения :nea:

mirror link: http://www.multiupload.com/UKDLDCLKL1

_________________


Top
 Profile E-mail  
 
 
PostPosted: 13 Nov 2010 
Доктор энтомологии
User avatar
Joined: 22 Jan 2009
Posts: 9778
Lоcаtion: Даугавпилс
Age: 44
Name: Алексей
:true:


Top
 Profile  
 
 
PostPosted: 13 Nov 2010 
А может смените мне статус?..
Joined: 03 Jul 2009
Posts: 872
Lоcаtion: Serbia
Name: Laki
Thanks a lot Leonid !!!


Top
 Profile E-mail  
 
 
PostPosted: 14 Nov 2010 
5-speed satisfactor
User avatar
Joined: 16 Feb 2009
Posts: 3737
Lоcаtion: New York, USA
Age: 41
Name: Leonid
Когда сканирую, залью. А все названия песен в cue, во flac tag–ах, ну и в самих названиях песен.

_________________
Death rules! Metal to all who oppose!


Top
 Profile  
 
 
PostPosted: 16 Nov 2010 
5cm
User avatar
Joined: 01 Mar 2009
Posts: 61
Name: Сергей
кью не рабочие, по трековый рип с неправильными настройками, поэтому и выкладываем логи, кого устраивает тот качает, кого нет проходит мимо. Кстати логи от образа.


Top
 Profile  
 
 
PostPosted: 16 Nov 2010 
5-speed satisfactor
User avatar
Joined: 16 Feb 2009
Posts: 3737
Lоcаtion: New York, USA
Age: 41
Name: Leonid
Все рабочее. Взять sox.exe и склеить в 1.

_________________
Death rules! Metal to all who oppose!


Top
 Profile  
 
 
PostPosted: 16 Nov 2010 
Хиппей (support team)
User avatar
Joined: 30 Jul 2007
Posts: 113133
Lоcаtion: Киев (Kyiv, UA)
Age: 46
Name: Andrey
metaleonid wrote:
Взять sox.exe и склеить в 1.

Ммм.. а зачем такие сложности неожиданные? :shok:

Кто не в курсах, читаем, что такое sox http://forum.sgh.ru/ptopic24426.html и не пужаемсо.

_________________


Top
 Profile E-mail  
 
 
PostPosted: 09 Sep 2013 
\m/ 80 см сала \m/
User avatar
Joined: 12 Mar 2012
Posts: 2590
Age: 26
Name: Nick
V/A - Doomsday News - The New Generation Of Heavy Metal [flac image+cue+scans]

Image

Download: Ya.Disk

log
Code:
Exact Audio Copy V0.99 prebeta 5 from 4. May 2009

EAC extraction logfile from 27. August 2012, 0:38

Various / Doomsday News - The New Generation Of Heavy Metal

Used drive  : PIONEER DVD-RW  DVR-215   Adapter: 5  ID: 0

Read mode               : Secure
Utilize accurate stream : Yes
Defeat audio cache      : Yes
Make use of C2 pointers : No

Read offset correction                      : 48
Overread into Lead-In and Lead-Out          : No
Fill up missing offset samples with silence : Yes
Delete leading and trailing silent blocks   : No
Null samples used in CRC calculations       : Yes
Used interface                              : Native Win32 interface for Win NT & 2000

Used output format              : User Defined Encoder
Selected bitrate                : 1024 kBit/s
Quality                         : High
Add ID3 tag                     : No
Command line compressor         : C:\Program Files (x86)\Exact Audio Copy\Flac\flac.exe
Additional command line options : -8 -V %s


TOC of the extracted CD

     Track |   Start  |  Length  | Start sector | End sector
    ---------------------------------------------------------
        1  |  0:00.00 |  3:44.37 |         0    |    16836   
        2  |  3:44.37 |  4:50.40 |     16837    |    38626   
        3  |  8:35.02 |  5:09.33 |     38627    |    61834   
        4  | 13:44.35 |  4:01.72 |     61835    |    79981   
        5  | 17:46.32 |  3:28.00 |     79982    |    95581   
        6  | 21:14.32 |  4:02.58 |     95582    |   113789   
        7  | 25:17.15 |  5:18.42 |    113790    |   137681   
        8  | 30:35.57 |  4:07.43 |    137682    |   156249   
        9  | 34:43.25 |  3:26.17 |    156250    |   171716   
       10  | 38:09.42 |  3:44.60 |    171717    |   188576   
       11  | 41:54.27 |  3:47.35 |    188577    |   205636   


Range status and errors

Selected range

     Filename D:\bki71\Various - Doomsday News - The New Generation Of Heavy Metal.wav

     Peak level 100.0 %
     Range quality 99.9 %
     Test CRC CC9D2B6F
     Copy CRC CC9D2B6F
     Copy OK

No errors occurred


AccurateRip summary

Track  1  not present in database
Track  2  not present in database
Track  3  not present in database
Track  4  not present in database
Track  5  not present in database
Track  6  not present in database
Track  7  not present in database
Track  8  not present in database
Track  9  not present in database
Track 10  not present in database
Track 11  not present in database

None of the tracks are present in the AccurateRip database

End of status report

cue
Code:
REM GENRE Metal
REM DATE 1988
REM DISCID 960AB50B
REM COMMENT "ExactAudioCopy v0.99pb5"
PERFORMER "Various Artists"
TITLE "Doomsday News - The New Generation Of Heavy Metal"
FILE "Various - Doomsday News - The New Generation Of Heavy Metal.flac" WAVE
  TRACK 01 AUDIO
    TITLE "Galactos"
    PERFORMER "Scanner"
    INDEX 01 00:00:00
  TRACK 02 AUDIO
    TITLE "Before The Storm"
    PERFORMER "Rage"
    INDEX 01 03:44:37
  TRACK 03 AUDIO
    TITLE "Scattered By The Wind"
    PERFORMER "Deathrow"
    INDEX 01 08:35:02
  TRACK 04 AUDIO
    TITLE "Arrogance In Uniform"
    PERFORMER "Coroner"
    INDEX 01 13:44:35
  TRACK 05 AUDIO
    TITLE "Total Addiction"
    PERFORMER "Tankard"
    INDEX 01 17:46:32
  TRACK 06 AUDIO
    TITLE "Hosanna In Excelsis"
    PERFORMER "Sabbat"
    INDEX 01 21:14:32
  TRACK 07 AUDIO
    TITLE "Starlight"
    PERFORMER "Helloween"
    INDEX 01 25:17:15
  TRACK 08 AUDIO
    TITLE "And The Brave Man Fails"
    PERFORMER "Vendetta"
    INDEX 01 30:35:57
  TRACK 09 AUDIO
    TITLE "Mesmerized"
    PERFORMER "Celtic Frost"
    INDEX 01 34:43:25
  TRACK 10 AUDIO
    TITLE "After The Attack"
    PERFORMER "Kreator"
    INDEX 01 38:09:42
  TRACK 11 AUDIO
    TITLE "Cockroaches"
    PERFORMER "Voivod"
    INDEX 01 41:54:27

scans
Image Image Image
Image Image Image
Image Image Image


V/A - Doomsday News II [flac image+cue+scans]

Image

Download: Ya.Disk

log
Code:
Exact Audio Copy V0.99 prebeta 5 from 4. May 2009

EAC extraction logfile from 27. August 2012, 1:10

Various / Doomsday News II

Used drive  : PIONEER DVD-RW  DVR-215   Adapter: 5  ID: 0

Read mode               : Secure
Utilize accurate stream : Yes
Defeat audio cache      : Yes
Make use of C2 pointers : No

Read offset correction                      : 48
Overread into Lead-In and Lead-Out          : No
Fill up missing offset samples with silence : Yes
Delete leading and trailing silent blocks   : No
Null samples used in CRC calculations       : Yes
Used interface                              : Native Win32 interface for Win NT & 2000

Used output format              : User Defined Encoder
Selected bitrate                : 1024 kBit/s
Quality                         : High
Add ID3 tag                     : No
Command line compressor         : C:\Program Files (x86)\Exact Audio Copy\Flac\flac.exe
Additional command line options : -8 -V %s


TOC of the extracted CD

     Track |   Start  |  Length  | Start sector | End sector
    ---------------------------------------------------------
        1  |  0:00.00 |  1:19.27 |         0    |     5951   
        2  |  1:19.27 |  4:14.60 |      5952    |    25061   
        3  |  5:34.12 |  4:14.68 |     25062    |    44179   
        4  |  9:49.05 |  7:04.12 |     44180    |    75991   
        5  | 16:53.17 |  4:18.00 |     75992    |    95341   
        6  | 21:11.17 |  6:19.58 |     95342    |   123824   
        7  | 27:31.00 |  5:53.67 |    123825    |   150366   
        8  | 33:24.67 |  4:32.28 |    150367    |   170794   


Range status and errors

Selected range

     Filename D:\bki71\Various - Doomsday News II.wav

     Peak level 100.0 %
     Range quality 100.0 %
     Test CRC 4A17FC6D
     Copy CRC 4A17FC6D
     Copy OK

No errors occurred


AccurateRip summary

Track  1  accurately ripped (confidence 3)  [6217EC90]
Track  2  accurately ripped (confidence 3)  [90A489A0]
Track  3  accurately ripped (confidence 3)  [5C8E0AB3]
Track  4  accurately ripped (confidence 3)  [F6C989E5]
Track  5  accurately ripped (confidence 3)  [06966B78]
Track  6  accurately ripped (confidence 3)  [E1F5EB83]
Track  7  accurately ripped (confidence 3)  [9D6AF0DF]
Track  8  accurately ripped (confidence 3)  [B86D3AD3]

All tracks accurately ripped

End of status report

cue
Code:
REM GENRE Metal
REM DATE 1989
REM DISCID 5108E508
REM COMMENT "ExactAudioCopy v0.99pb5"
PERFORMER "Various Artists"
TITLE "Doomsday News II"
FILE "Various - Doomsday News II.flac" WAVE
  TRACK 01 AUDIO
    TITLE "Hate, Fire, Blood"
    PERFORMER "Coroner"
    INDEX 01 00:00:00
  TRACK 02 AUDIO
    TITLE "Dangerous Toy"
    PERFORMER "Watchtower"
    INDEX 00 01:17:27
    INDEX 01 01:19:27
  TRACK 03 AUDIO
    TITLE "Aceldama: Terminal Breath"
    PERFORMER "Midas Touch"
    INDEX 00 05:33:12
    INDEX 01 05:34:12
  TRACK 04 AUDIO
    TITLE "Machinery"
    PERFORMER "Deathrow"
    INDEX 00 09:48:05
    INDEX 01 09:49:05
  TRACK 05 AUDIO
    TITLE "The Artist"
    PERFORMER "Mordred"
    INDEX 00 16:51:17
    INDEX 01 16:53:17
  TRACK 06 AUDIO
    TITLE "Mirror"
    PERFORMER "Rage"
    INDEX 00 21:10:17
    INDEX 01 21:11:17
  TRACK 07 AUDIO
    TITLE "War"
    PERFORMER "Vendetta"
    INDEX 00 27:30:00
    INDEX 01 27:31:00
  TRACK 08 AUDIO
    TITLE "Break Out"
    PERFORMER "Mania"
    INDEX 00 33:23:67
    INDEX 01 33:24:67

scans
Image Image Image Image
Image Image Image

_________________
1990 AUROPHON BRAINSTORM (Germany) - lossless
1994 MAUSOLEUM CLASSIX (Belgium-Germany) - lossless
1998 VA - GRIM HARVEST - Complete Metal Massacre Volumes I-XII


Top
 Profile  
 
 
PostPosted: 10 Sep 2013 
\m/ 80 см сала \m/
User avatar
Joined: 12 Mar 2012
Posts: 2590
Age: 26
Name: Nick
V/A - Doomsday News III. Thrashing East Live ([Germany] Noise Intl., N 0155-3) [flac image+cue+scans]

Image

Download: Ya.Disk

log
Code:
Exact Audio Copy V1.0 beta 3 from 29. August 2011

EAC extraction logfile from 13. June 2012, 21:33

Various / Doomsday News III. Thrashing East Live (Noise Intl., N 0155-3/SPV 76-04122)

Used drive  : PLEXTOR DVDR   PX-880SA   Adapter: 5  ID: 0

Read mode               : Secure
Utilize accurate stream : Yes
Defeat audio cache      : Yes
Make use of C2 pointers : No

Read offset correction                      : 6
Overread into Lead-In and Lead-Out          : No
Fill up missing offset samples with silence : Yes
Delete leading and trailing silent blocks   : No
Null samples used in CRC calculations       : Yes
Used interface                              : Native Win32 interface for Win NT & 2000

Used output format              : User Defined Encoder
Selected bitrate                : 1024 kBit/s
Quality                         : High
Add ID3 tag                     : No
Command line compressor         : C:\Program Files\FLAC\flac.exe
Additional command line options : -8 -V %source% -o %dest%


TOC of the extracted CD

     Track |   Start  |  Length  | Start sector | End sector
    ---------------------------------------------------------
        1  |  0:00.00 |  4:03.02 |         0    |    18226   
        2  |  4:03.02 |  6:15.15 |     18227    |    46366   
        3  | 10:18.17 |  3:57.65 |     46367    |    64206   
        4  | 14:16.07 |  4:47.20 |     64207    |    85751   
        5  | 19:03.27 |  3:59.03 |     85752    |   103679   
        6  | 23:02.30 |  4:56.35 |    103680    |   125914   
        7  | 27:58.65 |  5:17.22 |    125915    |   149711   
        8  | 33:16.12 |  4:06.28 |    149712    |   168189   
        9  | 37:22.40 |  5:40.07 |    168190    |   193696   
       10  | 43:02.47 |  6:16.38 |    193697    |   221934   
       11  | 49:19.10 |  4:25.40 |    221935    |   241849   
       12  | 53:44.50 |  3:50.35 |    241850    |   259134   
       13  | 57:35.10 |  4:31.05 |    259135    |   279464   


Range status and errors

Selected range

     Filename C:\Mysterons [Skull_of_Sheeps]\Various [1990] Doomsday News III. Thrashing East Live (Noise Intl., N 0155-3)\Various - Doomsday News III (Noise Intl., N 0155-3,SPV 76-04122).wav

     Peak level 100.0 %
     Extraction speed 4.6 X
     Range quality 100.0 %
     Test CRC 833AC996
     Copy CRC 833AC996
     Copy OK

No errors occurred


AccurateRip summary

Track  1  accurately ripped (confidence 4)  [26ADD721]  (AR v1)
Track  2  accurately ripped (confidence 4)  [7AA35F3D]  (AR v1)
Track  3  accurately ripped (confidence 4)  [EA2004B4]  (AR v1)
Track  4  accurately ripped (confidence 4)  [A0A2A9E2]  (AR v1)
Track  5  accurately ripped (confidence 3)  [81E3977A]  (AR v1)
Track  6  accurately ripped (confidence 3)  [D66C8147]  (AR v1)
Track  7  accurately ripped (confidence 3)  [9AAF50F5]  (AR v1)
Track  8  accurately ripped (confidence 3)  [7560C307]  (AR v1)
Track  9  accurately ripped (confidence 3)  [471D4BA3]  (AR v1)
Track 10  accurately ripped (confidence 3)  [7EFFB2CB]  (AR v1)
Track 11  accurately ripped (confidence 3)  [E264AF50]  (AR v1)
Track 12  accurately ripped (confidence 3)  [7F64B2DC]  (AR v1)
Track 13  accurately ripped (confidence 3)  [A8AFEA7B]  (AR v1)

All tracks accurately ripped

End of status report

---- CUETools DB Plugin V2.1.3

[CTDB TOCID: hGYK0m474gMNE_vT.QuAV33eKhs-] found, Submit result: hGYK0m474gMNE_vT.QuAV33eKhs- has been confirmed
[1e03669e] (3/3) Accurately ripped


cue
Code:
REM GENRE "Thrash Metal"
REM DATE 1990
REM DISCID C00E8E0D
REM COMMENT "ExactAudioCopy v1.0b3"
PERFORMER "Various Artists"
TITLE "Doomsday News III. Thrashing East Live (Noise Intl., N 0155-3/SPV 76-04122)"
FILE "Various - Doomsday News III (Noise Intl., N 0155-3,SPV 76-04122).flac" WAVE
  TRACK 01 AUDIO
    TITLE "Flag Of Hate (live)"
    PERFORMER "Kreator"
    INDEX 01 00:00:00
  TRACK 02 AUDIO
    TITLE "Riot Of Violence (live)"
    PERFORMER "Kreator"
    INDEX 00 04:02:27
    INDEX 01 04:03:02
  TRACK 03 AUDIO
    TITLE "Love Us Or Hate Us (live)"
    PERFORMER "Kreator"
    INDEX 01 10:18:17
  TRACK 04 AUDIO
    TITLE "Behind The Mirror (live)"
    PERFORMER "Kreator"
    INDEX 01 14:16:07
  TRACK 05 AUDIO
    TITLE "Alien (live)"
    PERFORMER "Tankard"
    INDEX 00 19:01:52
    INDEX 01 19:03:27
  TRACK 06 AUDIO
    TITLE "Chemical Invasion (live)"
    PERFORMER "Tankard"
    INDEX 00 23:01:30
    INDEX 01 23:02:30
  TRACK 07 AUDIO
    TITLE "Maniac Forces (live)"
    PERFORMER "Tankard"
    INDEX 00 27:58:15
    INDEX 01 27:58:65
  TRACK 08 AUDIO
    TITLE "Hosanna In Excelsis (live)"
    PERFORMER "Sabbat"
    INDEX 00 33:14:37
    INDEX 01 33:16:12
  TRACK 09 AUDIO
    TITLE "I For An Eye (live)"
    PERFORMER "Sabbat"
    INDEX 00 37:21:65
    INDEX 01 37:22:40
  TRACK 10 AUDIO
    TITLE "For Those Who Died (live)"
    PERFORMER "Sabbat"
    INDEX 00 43:01:72
    INDEX 01 43:02:47
  TRACK 11 AUDIO
    TITLE "D.O.A. (live)"
    PERFORMER "Coroner"
    INDEX 00 49:17:35
    INDEX 01 49:19:10
  TRACK 12 AUDIO
    TITLE "Absorbed (live)"
    PERFORMER "Coroner"
    INDEX 00 53:43:50
    INDEX 01 53:44:50
  TRACK 13 AUDIO
    TITLE "Read My Scars (live)"
    PERFORMER "Coroner"
    INDEX 00 57:34:35
    INDEX 01 57:35:10

scans
Image Image Image
Image Image


VA - 1990 - Doomsday News III - Thrashing East Live ([Japan] VICP-8032) [flac image+cue+cover]

Image

Download: Ya.Disk

log
Code:
Exact Audio Copy V0.99 prebeta 5 from 4. May 2009

EAC extraction logfile from 27. August 2012, 1:34

V.A. / Doomsday News III - Thrashing East Live (VICP-8032)

Used drive  : PIONEER DVD-RW  DVR-215   Adapter: 5  ID: 0

Read mode               : Secure
Utilize accurate stream : Yes
Defeat audio cache      : Yes
Make use of C2 pointers : No

Read offset correction                      : 48
Overread into Lead-In and Lead-Out          : No
Fill up missing offset samples with silence : Yes
Delete leading and trailing silent blocks   : No
Null samples used in CRC calculations       : Yes
Used interface                              : Native Win32 interface for Win NT & 2000

Used output format              : User Defined Encoder
Selected bitrate                : 1024 kBit/s
Quality                         : High
Add ID3 tag                     : No
Command line compressor         : C:\Program Files (x86)\Exact Audio Copy\Flac\flac.exe
Additional command line options : -8 -V %s


TOC of the extracted CD

     Track |   Start  |  Length  | Start sector | End sector
    ---------------------------------------------------------
        1  |  0:00.37 |  4:06.03 |        37    |    18489   
        2  |  4:06.40 |  5:41.65 |     18490    |    44129   
        3  |  9:48.30 |  3:59.00 |     44130    |    62054   
        4  | 13:47.30 |  4:56.35 |     62055    |    84289   
        5  | 18:43.65 |  5:21.20 |     84290    |   108384   
        6  | 24:05.10 |  4:06.27 |    108385    |   126861   
        7  | 28:11.37 |  5:40.08 |    126862    |   152369   
        8  | 33:51.45 |  6:16.40 |    152370    |   180609   
        9  | 40:08.10 |  4:25.37 |    180610    |   200521   
       10  | 44:33.47 |  3:50.35 |    200522    |   217806   
       11  | 48:24.07 |  4:33.18 |    217807    |   238299   


Range status and errors

Selected range

     Filename D:\bki71\V.A. - Doomsday News III - Thrashing East Live (VICP-8032).wav

     Peak level 97.6 %
     Range quality 100.0 %
     Test CRC 32769B39
     Copy CRC 32769B39
     Copy OK

No errors occurred


AccurateRip summary

Track  1  not present in database
Track  2  not present in database
Track  3  not present in database
Track  4  not present in database
Track  5  not present in database
Track  6  not present in database
Track  7  not present in database
Track  8  not present in database
Track  9  not present in database
Track 10  not present in database
Track 11  not present in database

None of the tracks are present in the AccurateRip database

End of status report

cue
Code:
REM GENRE Metal
REM DATE 1990
REM DISCID 910C690B
REM COMMENT "ExactAudioCopy v0.99pb5"
PERFORMER "Various Artists"
TITLE "Doomsday News III - Thrashing East Live (VICP-8032)"
FILE "V.A. - Doomsday News III - Thrashing East Live (VICP-8032).flac" WAVE
  TRACK 01 AUDIO
    TITLE "Flag Of Hate"
    PERFORMER "Kreator"
    INDEX 00 00:00:00
    INDEX 01 00:00:37
  TRACK 02 AUDIO
    TITLE "Riot Of Violence"
    PERFORMER "Kreator"
    INDEX 00 04:02:68
    INDEX 01 04:06:40
  TRACK 03 AUDIO
    TITLE "Alien"
    PERFORMER "Tankard"
    INDEX 00 09:44:61
    INDEX 01 09:48:30
  TRACK 04 AUDIO
    TITLE "Chemical Invasion"
    PERFORMER "Tankard"
    INDEX 00 13:46:43
    INDEX 01 13:47:30
  TRACK 05 AUDIO
    TITLE "Maniac Forces"
    PERFORMER "Tankard"
    INDEX 00 18:43:28
    INDEX 01 18:43:65
  TRACK 06 AUDIO
    TITLE "Hosanna In Excelsis"
    PERFORMER "Sabbat"
    INDEX 00 23:59:51
    INDEX 01 24:05:10
  TRACK 07 AUDIO
    TITLE "I For An Eye"
    PERFORMER "Sabbat"
    INDEX 00 28:11:01
    INDEX 01 28:11:37
  TRACK 08 AUDIO
    TITLE "For Those Who Died"
    PERFORMER "Sabbat"
    INDEX 00 33:51:08
    INDEX 01 33:51:45
  TRACK 09 AUDIO
    TITLE "D.O.A."
    PERFORMER "Coroner"
    INDEX 00 40:06:46
    INDEX 01 40:08:10
  TRACK 10 AUDIO
    TITLE "Absorbed"
    PERFORMER "Coroner"
    INDEX 00 44:32:61
    INDEX 01 44:33:47
  TRACK 11 AUDIO
    TITLE "Read My Scars"
    PERFORMER "Coroner"
    INDEX 00 48:23:46
    INDEX 01 48:24:07

scans
Image Image Image Image Image
Image Image Image Image Image
Image Image Image Image Image


Отличия немецкого и японского изданий - на немецком издании присутствуют две дополнительные песни Kreator ("Love Us Or Hate Us" & "Behind The Mirror"). Существует также американский пресс, трек-лист идентичный японскому.

Трек-листы всех частей Doomsday News:

V/A - Doomsday News - The New Generation Of Heavy Metal
01. Scanner - Galactos 3:42
02. Rage - Before The Storm (The Secret Affair) 4:48
03. Deathrow - Scattered By The Wind 5:07
04. Coroner - Arrogance In Uniform 4:00
05. Tankard - Total Addiction 3:24
06. Sabbat - Hosanna In Excelsis 4:00
07. Helloween - I'm Alive 3:25
08. Vendetta - And The Brave Man Fails 4:06
09. Celtic Frost - Mesmerized 3:24
10. Kreator - After The Attack 3:42
11. Voivod - Cockroaches 3:45

V/A - Doomsday News II
01. Coroner - Hate, Fire, Blood 1:19
02. Watchtower - Dangerous Toy 4:14
03. Midas Touch - Aceldama: Terminal Breath 4:14
04. Deathrow - Machinery 7:04
05. Mordred - The Artist 4:18
06. Rage - Mirror 6:19
07. Vendetta - War 5:53
08. Mania - Break Out 4:32

V/A - Doomsday News III. Thrashing East Live
01. Kreator - Flag Of Hate (live) 4:03
02. Kreator - Riot Of Violence (live) 6:15
03. Kreator - Love Us Or Hate Us (live)* 3:57
04. Kreator - Behind The Mirror (live)* 4:47
05. Tankard - Alien (live) 3:59
06. Tankard - Chemical Invasion (live) 4:56
07. Tankard - Maniac Forces (live) 5:17
08. Sabbat - Hosanna In Excelsis (live) 4:06
09. Sabbat - I For An Eye (live) 5:40
10. Sabbat - For Those Who Died (live) 6:16
11. Coroner - D.O.A. (live) 4:25
12. Coroner - Absorbed (live) 3:50
13. Coroner - Read My Scars (live) 4:31
*only on German press


http://rutracker.org/forum/viewtopic.php?t=4165881
http://rutracker.org/forum/viewtopic.php?t=4165881

V/A - Doomsday News - The New Generation Of Heavy Metal - bki71 и metallihead (rutracker.org)
V/A - Doomsday News II - bki71 и metallihead (rutracker.org)
V/A - Doomsday News III. Thrashing East Live ([Germany] Noise Intl., N 0155-3) - Mysterons (rutracker.org)
VA - 1990 - Doomsday News III - Thrashing East Live ([Japan] VICP-8032) - bki71 и metallihead (rutracker.org)

_________________
1990 AUROPHON BRAINSTORM (Germany) - lossless
1994 MAUSOLEUM CLASSIX (Belgium-Germany) - lossless
1998 VA - GRIM HARVEST - Complete Metal Massacre Volumes I-XII


Last edited by Scatterbrain on 06 Feb 2014, edited 1 time in total.
Добавлена дополнительная информация о сборниках


Top
 Profile  
 
 
PostPosted: 04 Feb 2014 
консэрваторъ
User avatar
Joined: 11 Aug 2007
Posts: 17005
Lоcаtion: Псков
Age: 45
Name: Сергей
Спасибо!..

_________________
THRASH 'EM ALL


Top
 Profile E-mail  
 
 
PostPosted: 05 Feb 2014 
Хиппей (support team)
User avatar
Joined: 30 Jul 2007
Posts: 113133
Lоcаtion: Киев (Kyiv, UA)
Age: 46
Name: Andrey
:thanx:

Ник, а варианты от Леонида здесь есть? :lloo:

_________________


Top
 Profile E-mail  
 
Display posts from previous:  Sort by  
Post new topic Reply to topic  [ 39 posts ]  Go to page 1, 2  Next

All times are UTC + 3 hours


Who is online

Users browsing this forum: No registered users and 1 guest


You cannot post new topics in this forum
You cannot reply to topics in this forum
You cannot edit your posts in this forum
You cannot delete your posts in this forum
You cannot post attachments in this forum

Search for:
Яндекс.Метрика
Powered by phpBB © 2000, 2002, 2005, 2007 phpBB Group