\m/ 80's metal \m/

Информационно-аналитический форум "80 см пыли" (In Search We Trust) "У нас никто никуда не спешит"
Me For You - http://me-4u.com
It is currently 26 Jun 2019

All times are UTC + 3 hours

Spoiler
Chat - temporary registration for foreign users (please leave your application here)







Post new topic Reply to topic  [ 4 posts ] 
Author Message
 
PostPosted: 30 Sep 2010 
ыыыы
User avatar
Joined: 17 May 2009
Posts: 952
Lоcаtion: Пушкино, МО
Age: 40
Name: Дмитрий
Image


Жанр: Heavy Metal
Происхождение исполнителя: Разное
Год издания: 1986
Год издания данного носителя: 1994
Страна-производитель носителя: Япония
Аудио кодек: FLAC
Тип рипа: image+.cue
Битрейт аудио: lossless
Продолжительность: 45:04
Рип: Собственный
Лейбл: VERTIGO/NIPPON PHONOGRAM
Каталоговый номер: PHCR-4218
Матрица: PHCR-4218 3R V (JVC)

Треклист:
1. Hear 'N Aid: Stars (extended version) 07:19
2. Accept: Up To The Limit (live) 05:05
3. Motorhead: On The Road (live) 04:57
4. Rush: Distant Early Warning (live) 05:09
5. Kiss: Heaven's On Fire (live) 04:25
6. Jimi Hendrix: Can You See Me 02:30
7. Dio: Hungry For Heaven (live) 04:47
8. Y&T: Go For The Throat 04:35
9. Scorpions: The Zoo (live) 06:16

"Куй"
REM GENRE "Heavy Metal"
REM DATE 1986
REM DISCID 6D0A8F09
REM COMMENT "ExactAudioCopy v0.99pb5"
PERFORMER "Various"
TITLE "Hear 'N Aid [PHCR-4218]"
FILE "Various - Hear 'N Aid [PHCR-4218].flac" WAVE
TRACK 01 AUDIO
TITLE "Hear 'N Aid"
PERFORMER "Stars"
INDEX 01 00:00:00
TRACK 02 AUDIO
TITLE "Accept"
PERFORMER "Up To The Limit (Live)"
INDEX 00 07:17:00
INDEX 01 07:18:70
TRACK 03 AUDIO
TITLE "Motorhead"
PERFORMER "On The Road (Live)"
INDEX 00 12:22:45
INDEX 01 12:24:30
TRACK 04 AUDIO
TITLE "Rush"
PERFORMER "Distant Early Warning (Live)"
INDEX 01 17:21:50
TRACK 05 AUDIO
TITLE "Kiss"
PERFORMER "Heaven's On Fire (Live)"
INDEX 01 22:30:57
TRACK 06 AUDIO
TITLE "Jimi Hendrix"
PERFORMER "Can You See Me"
INDEX 00 26:55:02
INDEX 01 26:55:47
TRACK 07 AUDIO
TITLE "Dio"
PERFORMER "Hungry For Heaven (Live)"
INDEX 01 29:25:22
TRACK 08 AUDIO
TITLE "Y & T"
PERFORMER "Go For The Throat"
INDEX 00 34:10:70
INDEX 01 34:12:22
TRACK 09 AUDIO
TITLE "Scorpions"
PERFORMER "The Zoo (Live)"
INDEX 00 38:45:65
INDEX 01 38:47:40


"Лог"
Exact Audio Copy V0.99 prebeta 5 from 4. May 2009

Отчёт EAC об извлечении, выполненном 26. января 2010, 0:15

Various / Hear 'N Aid [PHCR-4218]

Дисковод: ASUS DRW-2014S1 Adapter: 1 ID: 0

Режим чтения : Достоверность
Использование точного потока : Да
Отключение кэша аудио : Да
Использование указателей C2 : Нет

Коррекция смещения при чтении : 6
Способность читать области Lead-in и Lead-out : Нет
Заполнение пропущенных сэмплов тишиной : Да
Удаление блоков с тишиной в начале и конце : Нет
При вычислениях CRC использовались нулевые сэмплы : Да
Интерфейс : Установленный внешний ASPI-интерфейс

Выходной формат : Пользовательский кодировщик
Выбранный битрейт : 128 kBit/s
Качество : Высокий
Добавление ID3-тэга : Нет
Утилита сжатия : C:\Program Files\Exact Audio Copy\Flac\flac.exe
Дополнительные параметры : -6 -V -T "artist=%a" -T "title=%t" -T "album=%g" -T "date=%y" -T "tracknumber=%n" -T "genre=%m" -T "comment=EAC 0.99beta5 / FLAC 1.1.0 q6" %s


TOC извлечённого CD

Трек | Старт | Длительность | Начальный сектор | Конечный сектор
---------------------------------------------------------------------
1 | 0:00.00 | 7:18.70 | 0 | 32919
2 | 7:18.70 | 5:05.35 | 32920 | 55829
3 | 12:24.30 | 4:57.20 | 55830 | 78124
4 | 17:21.50 | 5:09.07 | 78125 | 101306
5 | 22:30.57 | 4:24.65 | 101307 | 121171
6 | 26:55.47 | 2:29.50 | 121172 | 132396
7 | 29:25.22 | 4:47.00 | 132397 | 153921
8 | 34:12.22 | 4:35.18 | 153922 | 174564
9 | 38:47.40 | 6:16.00 | 174565 | 202764


Характеристики диапазона извлечения и сообщения об ошибках

Выбранный диапазон

Имя файла Y:\Музыка\Various Artists\1986 Hear 'N Aid\Various - Hear 'N Aid [PHCR-4218].wav

Пиковый уровень 100.0 %
Качество диапазона 100.0 %
CRC копии 6D97A456
Копирование... OK

Ошибок не произошло


AccurateRip: сводка

Трек 1 точное извлечение (доверие 3) [E8CE2152]
Трек 2 точное извлечение (доверие 3) [62F57244]
Трек 3 точное извлечение (доверие 3) [E5B350E4]
Трек 4 точное извлечение (доверие 3) [C40B4852]
Трек 5 точное извлечение (доверие 3) [D771BE71]
Трек 6 точное извлечение (доверие 3) [21FD6BC4]
Трек 7 точное извлечение (доверие 3) [B92F458B]
Трек 8 точное извлечение (доверие 3) [5BDC47C6]
Трек 9 точное извлечение (доверие 3) [3D861B85]

Все треки извлечены точно

Конец отчёта


Состав:
Оооо..это долго!

PHCR-4218
Сканы

_________________
Витасу до Даймонда как Алсу до Руссоса | При переразмещении - спрашивать разрешение!!


Top
 Profile  
 
 
PostPosted: 30 Sep 2010 
Хиппей (support team)
User avatar
Joined: 30 Jul 2007
Posts: 113137
Lоcаtion: Киев (Kyiv, UA)
Age: 46
Name: Andrey
iezuit wrote:
Сканы

Ого :true:

_________________


Top
 Profile E-mail  
 
 
PostPosted: 01 Oct 2010 
Персональный статус
Joined: 14 May 2010
Posts: 236
Age: 37
Name: Денис
Спасибо.


Top
 Profile  
 
 
PostPosted: 01 Oct 2010 
HAMMER
User avatar
Joined: 16 May 2009
Posts: 5488
Lоcаtion: Тверь
Age: 46
Name: Александр
:thanx:


Top
 Profile E-mail  
 
Display posts from previous:  Sort by  
Post new topic Reply to topic  [ 4 posts ] 

All times are UTC + 3 hours


Who is online

Users browsing this forum: No registered users and 1 guest


You cannot post new topics in this forum
You cannot reply to topics in this forum
You cannot edit your posts in this forum
You cannot delete your posts in this forum
You cannot post attachments in this forum

Search for:
Яндекс.Метрика
Powered by phpBB © 2000, 2002, 2005, 2007 phpBB Group