\m/ 80's metal \m/

Информационно-аналитический форум "80 см пыли" (In Search We Trust) "У нас никто никуда не спешит"
Me For You - http://me-4u.com
It is currently 17 Sep 2019

All times are UTC + 3 hours

Spoiler
Chat - temporary registration for foreign users (please leave your application here)







Post new topic Reply to topic  [ 8 posts ] 
Author Message
 
PostPosted: 07 Sep 2010 
А может смените мне статус?..
Joined: 03 Jul 2009
Posts: 883
Lоcаtion: Serbia
Name: Laki
Image


01. Armored Saint - Lesson Well Learned
02. 3rd Stage - Mind Invader
03. Surgical Steel - Rivet Head
04. Obsession - Shadows of Steel
05. Savage Grace - Scepters of Deceit
06. Overkill - No Holds Barred
07. Warlord - Lucifer's Hammer
08. Trauma - Such a Shame
09. Dietrich - It's Alright
10. Molten Leather - Inversion
11. Hyksos - The Kings
12. Aloha - Heavy Metal Virgin


Thanks in advance !!!!!!


Top
 Profile E-mail  
 
 
PostPosted: 29 Jan 2014 
консэрваторъ
User avatar
Joined: 11 Aug 2007
Posts: 17211
Lоcаtion: Псков
Age: 45
Name: Сергей
http://rutracker.org/forum/viewtopic.php?t=4277330

_________________
THRASH 'EM ALL


Top
 Profile E-mail  
 
 
PostPosted: 17 Mar 2014 
Хиппей (support team)
User avatar
Joined: 30 Jul 2007
Posts: 114364
Lоcаtion: Киев (Kyiv, UA)
Age: 46
Name: Andrey
Various Artists - 1982 - Metal Massacre 2 (USA Metal Blade 3984-14041-2) [flac]

Image Image

Image Image

mirror: Narod l M-Cloud

log
Exact Audio Copy V0.99 prebeta 5 from 4. May 2009

EAC extraction logfile from 30. August 2012, 2:03

Various / Metal Massacre (USA Metal Blade 3984-14041-2)

Used drive : PIONEER DVD-RW DVR-215 Adapter: 5 ID: 0

Read mode : Secure
Utilize accurate stream : Yes
Defeat audio cache : Yes
Make use of C2 pointers : No

Read offset correction : 48
Overread into Lead-In and Lead-Out : No
Fill up missing offset samples with silence : Yes
Delete leading and trailing silent blocks : No
Null samples used in CRC calculations : Yes
Used interface : Native Win32 interface for Win NT & 2000

Used output format : User Defined Encoder
Selected bitrate : 1024 kBit/s
Quality : High
Add ID3 tag : No
Command line compressor : C:\Program Files (x86)\Exact Audio Copy\Flac\flac.exe
Additional command line options : -8 -V %s


TOC of the extracted CD

Track | Start | Length | Start sector | End sector
---------------------------------------------------------
1 | 0:00.00 | 3:45.00 | 0 | 16874
2 | 3:45.00 | 5:19.22 | 16875 | 40821
3 | 9:04.22 | 3:21.25 | 40822 | 55921
4 | 12:25.47 | 3:48.25 | 55922 | 73046
5 | 16:13.72 | 3:56.33 | 73047 | 90779
6 | 20:10.30 | 2:35.62 | 90780 | 102466
7 | 22:46.17 | 3:44.33 | 102467 | 119299
8 | 26:30.50 | 4:28.55 | 119300 | 139454
9 | 30:59.30 | 4:12.62 | 139455 | 158416


Range status and errors

Selected range

Filename D:\bki71\Metal Massacre\Various - Metal Massacre (USA Metal Blade 3984-14041-2).wav

Peak level 94.6 %
Range quality 100.0 %
Test CRC 6DA63F35
Copy CRC 6DA63F35
Copy OK

No errors occurred


AccurateRip summary

Track 1 accurately ripped (confidence 2) [05B55C20]
Track 2 accurately ripped (confidence 2) [402BF315]
Track 3 accurately ripped (confidence 2) [769DC5A9]
Track 4 accurately ripped (confidence 2) [E13797A6]
Track 5 accurately ripped (confidence 2) [ADA22D2F]
Track 6 accurately ripped (confidence 2) [6701113A]
Track 7 accurately ripped (confidence 2) [87CDAF93]
Track 8 accurately ripped (confidence 2) [185DAFD6]
Track 9 accurately ripped (confidence 2) [EA60CEDE]

All tracks accurately ripped

End of status report

cue
REM GENRE Metal
REM DATE 1994
REM DISCID 7C084009
REM COMMENT "ExactAudioCopy v0.99pb5"
PERFORMER "Various"
TITLE "Metal Massacre (USA Metal Blade 3984-14041-2)"
FILE "Various - Metal Massacre (USA Metal Blade 3984-14041-2).flac" WAVE
TRACK 01 AUDIO
TITLE "Chains Around Heaven"
PERFORMER "Black 'N' Blue"
INDEX 01 00:00:00
TRACK 02 AUDIO
TITLE "Live For The Whip"
PERFORMER "Bitch"
INDEX 01 03:45:00
TRACK 03 AUDIO
TITLE "Captive Of Light"
PERFORMER "Malice"
INDEX 00 09:03:00
INDEX 01 09:04:22
TRACK 04 AUDIO
TITLE "Octave"
PERFORMER "Avatar"
INDEX 00 12:24:32
INDEX 01 12:25:47
TRACK 05 AUDIO
TITLE "Death Of The Sun"
PERFORMER "Cirith Ungol"
INDEX 00 16:12:30
INDEX 01 16:13:72
TRACK 06 AUDIO
TITLE "Dead Of The Night"
PERFORMER "Demon Flight"
INDEX 01 20:10:30
TRACK 07 AUDIO
TITLE "Fighting Backwards"
PERFORMER "Pandemonium"
INDEX 00 22:45:07
INDEX 01 22:46:17
TRACK 08 AUDIO
TITLE "Kick You Down"
PERFORMER "Malice"
INDEX 01 26:30:50
TRACK 09 AUDIO
TITLE "Hit The Lights"
PERFORMER "Metallica"
INDEX 01 30:59:30

_________________


Top
 Profile E-mail  
 
 
PostPosted: 17 Mar 2014 
Хиппей (support team)
User avatar
Joined: 30 Jul 2007
Posts: 114364
Lоcаtion: Киев (Kyiv, UA)
Age: 46
Name: Andrey
Various Artists - 1982 - Metal Massacre (USA Metal Blade 3984-14042-2) [flac]

Image
Image ImageImage

mirror: Narod l M-Cloud

log
Exact Audio Copy V0.99 prebeta 5 from 4. May 2009

EAC extraction logfile from 30. August 2012, 2:45

Various Artists / Metal Massacre 2 (USA Metal Blade 3984-14042-2)

Used drive : PIONEER DVD-RW DVR-215 Adapter: 5 ID: 0

Read mode : Secure
Utilize accurate stream : Yes
Defeat audio cache : Yes
Make use of C2 pointers : No

Read offset correction : 48
Overread into Lead-In and Lead-Out : No
Fill up missing offset samples with silence : Yes
Delete leading and trailing silent blocks : No
Null samples used in CRC calculations : Yes
Used interface : Native Win32 interface for Win NT & 2000

Used output format : User Defined Encoder
Selected bitrate : 1024 kBit/s
Quality : High
Add ID3 tag : No
Command line compressor : C:\Program Files (x86)\Exact Audio Copy\Flac\flac.exe
Additional command line options : -8 -V %s


TOC of the extracted CD

Track | Start | Length | Start sector | End sector
---------------------------------------------------------
1 | 0:00.00 | 2:49.50 | 0 | 12724
2 | 2:49.50 | 3:50.14 | 12725 | 29988
3 | 6:39.64 | 3:03.54 | 29989 | 43767
4 | 9:43.43 | 4:31.07 | 43768 | 64099
5 | 14:14.50 | 3:45.58 | 64100 | 81032
6 | 18:00.33 | 4:12.51 | 81033 | 99983
7 | 22:13.09 | 3:18.01 | 99984 | 114834
8 | 25:31.10 | 2:53.63 | 114835 | 127872
9 | 28:24.73 | 3:25.68 | 127873 | 143315
10 | 31:50.66 | 4:04.60 | 143316 | 161675
11 | 35:55.51 | 6:10.71 | 161676 | 189496
12 | 42:06.47 | 3:01.51 | 189497 | 203122


Range status and errors

Selected range

Filename D:\bki71\Metal Massacre\Various Artists - Metal Massacre 2 (USA Metal Blade 3984-14042-2).wav

Peak level 94.6 %
Range quality 99.9 %
Test CRC F716FEA7
Copy CRC F716FEA7
Copy OK

No errors occurred


AccurateRip summary

Track 1 accurately ripped (confidence 1) [44098729]
Track 2 accurately ripped (confidence 1) [B886C121]
Track 3 accurately ripped (confidence 1) [2B815228]
Track 4 accurately ripped (confidence 1) [1DB68AA0]
Track 5 accurately ripped (confidence 1) [ABD920EE]
Track 6 accurately ripped (confidence 1) [EA6FCD1C]
Track 7 accurately ripped (confidence 1) [79D143A3]
Track 8 accurately ripped (confidence 1) [5DCF9285]
Track 9 accurately ripped (confidence 1) [F5F4FE5F]
Track 10 accurately ripped (confidence 1) [6C800142]
Track 11 accurately ripped (confidence 1) [A7C356B5]
Track 12 accurately ripped (confidence 1) [E4151632]

All tracks accurately ripped

End of status report

cue
REM GENRE Metal
REM DATE 1994
REM DISCID 930A940C
REM COMMENT "ExactAudioCopy v0.99pb5"
PERFORMER "Various Artists"
TITLE "Metal Massacre 2 (USA Metal Blade 3984-14042-2)"
FILE "Various Artists - Metal Massacre 2 (USA Metal Blade 3984-14042-2).flac" WAVE
TRACK 01 AUDIO
TITLE "Lesson Well Learned"
PERFORMER "Armored Saint"
INDEX 01 00:00:00
TRACK 02 AUDIO
TITLE "Mind Invader"
PERFORMER "3rd Stage Alert"
INDEX 01 02:49:50
TRACK 03 AUDIO
TITLE "Rivit Head"
PERFORMER "Surgical Steel"
INDEX 01 06:39:64
TRACK 04 AUDIO
TITLE "Shadows Of Steel"
PERFORMER "Obsession"
INDEX 00 09:42:29
INDEX 01 09:43:43
TRACK 05 AUDIO
TITLE "Scepters Of Deceit"
PERFORMER "Savage Grace"
INDEX 01 14:14:50
TRACK 06 AUDIO
TITLE "No Holds Barred"
PERFORMER "Overkill"
INDEX 01 18:00:33
TRACK 07 AUDIO
TITLE "Lucifer's Hammer"
PERFORMER "Warlord"
INDEX 01 22:13:09
TRACK 08 AUDIO
TITLE "Such A Shame"
PERFORMER "Trauma"
INDEX 00 25:30:11
INDEX 01 25:31:10
TRACK 09 AUDIO
TITLE "It's Alright"
PERFORMER "Dietrich"
INDEX 01 28:24:73
TRACK 10 AUDIO
TITLE "Inversion"
PERFORMER "Molten Leather"
INDEX 01 31:50:66
TRACK 11 AUDIO
TITLE "The Kings"
PERFORMER "Hyksos"
INDEX 01 35:55:51
TRACK 12 AUDIO
TITLE "Heavy Metal Virgin"
PERFORMER "Aloha"
INDEX 01 42:06:47

_________________


Top
 Profile E-mail  
 
 
PostPosted: 17 Mar 2014 
Хиппей (support team)
User avatar
Joined: 30 Jul 2007
Posts: 114364
Lоcаtion: Киев (Kyiv, UA)
Age: 46
Name: Andrey
Various Artists - 1982 - Metal Massacre (England CDMZORRO 76) [flac]

mirror: Narod l M-Cloud
Image Image

Image Image

log
Exact Audio Copy V0.99 prebeta 5 from 4. May 2009

EAC extraction logfile from 14. March 2012, 10:27

Various / Metal Massacre (CDMZORRO 76)

Used drive : PLEXTOR DVDR PX-760A Adapter: 0 ID: 0

Read mode : Secure
Utilize accurate stream : Yes
Defeat audio cache : Yes
Make use of C2 pointers : No

Read offset correction : 30
Overread into Lead-In and Lead-Out : No
Fill up missing offset samples with silence : Yes
Delete leading and trailing silent blocks : No
Null samples used in CRC calculations : Yes
Used interface : Native Win32 interface for Win NT & 2000

Used output format : User Defined Encoder
Selected bitrate : 1024 kBit/s
Quality : High
Add ID3 tag : No
Command line compressor : C:\Program Files (x86)\Exact Audio Copy\Flac\flac.exe
Additional command line options : -8 -V %s


TOC of the extracted CD

Track | Start | Length | Start sector | End sector
---------------------------------------------------------
1 | 0:00.00 | 3:45.72 | 0 | 16946
2 | 3:45.72 | 5:19.20 | 16947 | 40891
3 | 9:05.17 | 3:21.35 | 40892 | 56001
4 | 12:26.52 | 3:48.25 | 56002 | 73126
5 | 16:15.02 | 3:56.58 | 73127 | 90884
6 | 20:11.60 | 2:35.32 | 90885 | 102541
7 | 22:47.17 | 3:44.38 | 102542 | 119379
8 | 26:31.55 | 4:28.55 | 119380 | 139534
9 | 31:00.35 | 4:12.05 | 139535 | 158439


Range status and errors

Selected range

Filename D:\bki71\Various - Metal Massacre (CDMZORRO 76).wav

Peak level 94.6 %
Range quality 100.0 %
Test CRC 17BD6292
Copy CRC 17BD6292
Copy OK

No errors occurred


AccurateRip summary

Track 1 not present in database
Track 2 not present in database
Track 3 not present in database
Track 4 not present in database
Track 5 not present in database
Track 6 not present in database
Track 7 not present in database
Track 8 not present in database
Track 9 not present in database

None of the tracks are present in the AccurateRip database

End of status report

cue
REM GENRE Metal
REM DATE 1984
REM DISCID 84084009
REM COMMENT "ExactAudioCopy v0.99pb5"
PERFORMER "Various"
TITLE "Metal Massacre (CDMZORRO 76)"
FILE "Various - Metal Massacre (CDMZORRO 76).flac" WAVE
TRACK 01 AUDIO
TITLE "Chains Around Heaven"
PERFORMER "Black 'N' Blue"
INDEX 01 00:00:00
TRACK 02 AUDIO
TITLE "Live For The Whip"
PERFORMER "Bitch"
INDEX 00 03:44:52
INDEX 01 03:45:72
TRACK 03 AUDIO
TITLE "Captive Of Light"
PERFORMER "Malice"
INDEX 00 09:03:55
INDEX 01 09:05:17
TRACK 04 AUDIO
TITLE "Octave"
PERFORMER "Avatar"
INDEX 00 12:25:07
INDEX 01 12:26:52
TRACK 05 AUDIO
TITLE "Death Of The Sun"
PERFORMER "Cirith Ungol"
INDEX 00 16:13:17
INDEX 01 16:15:02
TRACK 06 AUDIO
TITLE "Dead Of The Night"
PERFORMER "Demon Flight"
INDEX 00 20:10:32
INDEX 01 20:11:60
TRACK 07 AUDIO
TITLE "Fighting Backwards"
PERFORMER "Pandemonium"
INDEX 00 22:45:42
INDEX 01 22:47:17
TRACK 08 AUDIO
TITLE "Kick You Down"
PERFORMER "Malice"
INDEX 00 26:30:35
INDEX 01 26:31:55
TRACK 09 AUDIO
TITLE "Hit The Lights"
PERFORMER "Metallica"
INDEX 00 30:59:02
INDEX 01 31:00:35

_________________


Top
 Profile E-mail  
 
 
PostPosted: 18 Mar 2014 
Хиппей (support team)
User avatar
Joined: 30 Jul 2007
Posts: 114364
Lоcаtion: Киев (Kyiv, UA)
Age: 46
Name: Andrey
Various Artists - 1982 - Metal Massacre 2 (PHCR-16159) [flac]

pics
Image

Image

Image

Image

Image

Image

Image

Image

Image

Image

Image

Image


mirror: Narod l M-Cloud

log
Exact Audio Copy V0.99 prebeta 5 from 4. May 2009

EAC extraction logfile from 30. August 2012, 3:12

Various Artists / Metal Massacre 2 (PHCR-16159)

Used drive : PIONEER DVD-RW DVR-215 Adapter: 5 ID: 0

Read mode : Secure
Utilize accurate stream : Yes
Defeat audio cache : Yes
Make use of C2 pointers : No

Read offset correction : 48
Overread into Lead-In and Lead-Out : No
Fill up missing offset samples with silence : Yes
Delete leading and trailing silent blocks : No
Null samples used in CRC calculations : Yes
Used interface : Native Win32 interface for Win NT & 2000

Used output format : User Defined Encoder
Selected bitrate : 1024 kBit/s
Quality : High
Add ID3 tag : No
Command line compressor : C:\Program Files (x86)\Exact Audio Copy\Flac\flac.exe
Additional command line options : -8 -V %s


TOC of the extracted CD

Track | Start | Length | Start sector | End sector
---------------------------------------------------------
1 | 0:00.37 | 2:52.08 | 37 | 12944
2 | 2:52.45 | 3:50.60 | 12945 | 30254
3 | 6:43.30 | 3:03.47 | 30255 | 44026
4 | 9:47.02 | 4:31.03 | 44027 | 64354
5 | 14:18.05 | 3:45.70 | 64355 | 81299
6 | 18:04.00 | 4:12.42 | 81300 | 100241
7 | 22:16.42 | 3:18.03 | 100242 | 115094
8 | 25:34.45 | 2:53.47 | 115095 | 128116
9 | 28:28.17 | 3:26.03 | 128117 | 143569
10 | 31:54.20 | 4:04.30 | 143570 | 161899
11 | 35:58.50 | 6:11.07 | 161900 | 189731
12 | 42:09.57 | 3:02.53 | 189732 | 203434


Range status and errors

Selected range

Filename D:\bki71\Metal Massacre\Various Artists - Metal Massacre 2 (PHCR-16159).wav

Peak level 94.6 %
Range quality 100.0 %
Test CRC 3CFAF89B
Copy CRC 3CFAF89B
Copy OK

No errors occurred


AccurateRip summary

Track 1 not present in database
Track 2 not present in database
Track 3 not present in database
Track 4 not present in database
Track 5 not present in database
Track 6 not present in database
Track 7 not present in database
Track 8 not present in database
Track 9 not present in database
Track 10 not present in database
Track 11 not present in database
Track 12 not present in database

None of the tracks are present in the AccurateRip database

End of status report

cue
REM GENRE Metal
REM DATE 1994
REM DISCID 960A980C
REM COMMENT "ExactAudioCopy v0.99pb5"
PERFORMER "Various Artists"
TITLE "Metal Massacre 2 (PHCR-16159)"
FILE "Various Artists - Metal Massacre 2 (PHCR-16159).flac" WAVE
TRACK 01 AUDIO
TITLE "Lesson Well Learned"
PERFORMER "Armored Saint"
INDEX 00 00:00:00
INDEX 01 00:00:37
TRACK 02 AUDIO
TITLE "Mind Invader"
PERFORMER "3rd Stage Alert"
INDEX 00 02:52:08
INDEX 01 02:52:45
TRACK 03 AUDIO
TITLE "Rivit Head"
PERFORMER "Surgical Steel"
INDEX 00 06:42:28
INDEX 01 06:43:30
TRACK 04 AUDIO
TITLE "Shadows Of Steel"
PERFORMER "Obsession"
INDEX 00 09:45:61
INDEX 01 09:47:02
TRACK 05 AUDIO
TITLE "Scepters Of Deceit"
PERFORMER "Savage Grace"
INDEX 00 14:17:58
INDEX 01 14:18:05
TRACK 06 AUDIO
TITLE "No Holds Barred"
PERFORMER "Overkill"
INDEX 00 18:02:38
INDEX 01 18:04:00
TRACK 07 AUDIO
TITLE "Lucifer's Hammer"
PERFORMER "Warlord"
INDEX 00 22:15:68
INDEX 01 22:16:42
TRACK 08 AUDIO
TITLE "Such A Shame"
PERFORMER "Trauma"
INDEX 00 25:33:58
INDEX 01 25:34:45
TRACK 09 AUDIO
TITLE "It's Alright"
PERFORMER "Dietrich"
INDEX 00 28:27:38
INDEX 01 28:28:17
TRACK 10 AUDIO
TITLE "Inversion"
PERFORMER "Molten Leather"
INDEX 00 31:53:63
INDEX 01 31:54:20
TRACK 11 AUDIO
TITLE "The Kings"
PERFORMER "Hyksos"
INDEX 00 35:57:73
INDEX 01 35:58:50
TRACK 12 AUDIO
TITLE "Heavy Metal Virgin"
PERFORMER "Aloha"
INDEX 00 42:09:48
INDEX 01 42:09:57

_________________


Top
 Profile E-mail  
 
 
PostPosted: 19 Mar 2014 
Хиппей (support team)
User avatar
Joined: 30 Jul 2007
Posts: 114364
Lоcаtion: Киев (Kyiv, UA)
Age: 46
Name: Andrey
Various Artists - 1983 - Metal Massacre 3 (USA Metal Blade 3984-14043-2) [flac]

mirror: Narod l M-Cloud

Image Image

Image Image

log
Exact Audio Copy V0.99 prebeta 5 from 4. May 2009

EAC extraction logfile from 31. August 2012, 2:08

Various / Metal Massacre 3 (USA Metal Blade 3984-14043-2)

Used drive : PIONEER DVD-RW DVR-215 Adapter: 5 ID: 0

Read mode : Secure
Utilize accurate stream : Yes
Defeat audio cache : Yes
Make use of C2 pointers : No

Read offset correction : 48
Overread into Lead-In and Lead-Out : No
Fill up missing offset samples with silence : Yes
Delete leading and trailing silent blocks : No
Null samples used in CRC calculations : Yes
Used interface : Native Win32 interface for Win NT & 2000

Used output format : User Defined Encoder
Selected bitrate : 1024 kBit/s
Quality : High
Add ID3 tag : No
Command line compressor : C:\Program Files (x86)\Exact Audio Copy\Flac\flac.exe
Additional command line options : -8 -V %s


TOC of the extracted CD

Track | Start | Length | Start sector | End sector
---------------------------------------------------------
1 | 0:00.00 | 3:30.35 | 0 | 15784
2 | 3:30.35 | 3:57.30 | 15785 | 33589
3 | 7:27.65 | 5:14.56 | 33590 | 57195
4 | 12:42.46 | 2:11.27 | 57196 | 67047
5 | 14:53.73 | 5:25.04 | 67048 | 91426
6 | 20:19.02 | 2:56.39 | 91427 | 104665
7 | 23:15.41 | 5:55.29 | 104666 | 131319
8 | 29:10.70 | 3:11.67 | 131320 | 145711
9 | 32:22.62 | 3:00.55 | 145712 | 159266
10 | 35:23.42 | 1:49.14 | 159267 | 167455
11 | 37:12.56 | 3:01.74 | 167456 | 181104
12 | 40:14.55 | 2:39.35 | 181105 | 193064


Range status and errors

Selected range

Filename D:\bki71\Metal Massacre\Various - Metal Massacre 3 (USA Metal Blade 3984-14043-2).wav

Peak level 94.6 %
Range quality 100.0 %
Test CRC 5590EE12
Copy CRC 5590EE12
Copy OK

No errors occurred


AccurateRip summary

Track 1 accurately ripped (confidence 3) [6A0FC078]
Track 2 accurately ripped (confidence 3) [33B23724]
Track 3 accurately ripped (confidence 3) [FAAADC27]
Track 4 accurately ripped (confidence 3) [4677AF69]
Track 5 accurately ripped (confidence 3) [D61A9753]
Track 6 accurately ripped (confidence 3) [1BC34359]
Track 7 accurately ripped (confidence 3) [B11CCA48]
Track 8 accurately ripped (confidence 3) [F2AE1F7C]
Track 9 accurately ripped (confidence 3) [92EAEA6B]
Track 10 accurately ripped (confidence 3) [C8954C41]
Track 11 accurately ripped (confidence 3) [D9BBC4B2]
Track 12 accurately ripped (confidence 3) [93696698]

All tracks accurately ripped

End of status report

cue
REM GENRE Metal
REM DATE 1994
REM DISCID 9C0A0E0C
REM COMMENT "ExactAudioCopy v0.99pb5"
PERFORMER "Various"
TITLE "Metal Massacre 3 (USA Metal Blade 3984-14043-2)"
FILE "Various - Metal Massacre 3 (USA Metal Blade 3984-14043-2).flac" WAVE
TRACK 01 AUDIO
TITLE "Aggressive Perfector"
PERFORMER "Slayer"
INDEX 01 00:00:00
TRACK 02 AUDIO
TITLE "Riding In Thunder"
PERFORMER "Bitch"
INDEX 00 03:29:49
INDEX 01 03:30:35
TRACK 03 AUDIO
TITLE "Armagedon"
PERFORMER "Tyrant"
INDEX 00 07:26:28
INDEX 01 07:27:65
TRACK 04 AUDIO
TITLE "Piranahs"
PERFORMER "Medusa"
INDEX 00 12:41:18
INDEX 01 12:42:46
TRACK 05 AUDIO
TITLE "Bite the Knife"
PERFORMER "Test Pattern"
INDEX 00 14:53:03
INDEX 01 14:53:73
TRACK 06 AUDIO
TITLE "Blitzkrieg"
PERFORMER "Black Widow"
INDEX 00 20:17:00
INDEX 01 20:19:02
TRACK 07 AUDIO
TITLE "Mrs. Victoria"
PERFORMER "Warlord"
INDEX 00 23:15:01
INDEX 01 23:15:41
TRACK 08 AUDIO
TITLE "Let's Go All The Way"
PERFORMER "Virgin Steele"
INDEX 00 29:09:34
INDEX 01 29:10:70
TRACK 09 AUDIO
TITLE "Fire and Wind"
PERFORMER "Sexist"
INDEX 00 32:21:20
INDEX 01 32:22:62
TRACK 10 AUDIO
TITLE "Hellbent"
PERFORMER "Snowhite"
INDEX 00 35:20:41
INDEX 01 35:23:42
TRACK 11 AUDIO
TITLE "The Kid"
PERFORMER "Marauder"
INDEX 00 37:11:11
INDEX 01 37:12:56
TRACK 12 AUDIO
TITLE "Fist and Chain"
PERFORMER "La Mort"
INDEX 00 40:13:19
INDEX 01 40:14:55

_________________


Top
 Profile E-mail  
 
 
PostPosted: 19 Mar 2014 
Хиппей (support team)
User avatar
Joined: 30 Jul 2007
Posts: 114364
Lоcаtion: Киев (Kyiv, UA)
Age: 46
Name: Andrey
Various Artists - 1984 - Metal Massacre 5 (USA Metal Blade 3984-14045-2) [flac]

mirror: Narod l M-Cloud
ImageImage
Image Image

log
Exact Audio Copy V0.99 prebeta 5 from 4. May 2009

EAC extraction logfile from 31. August 2012, 1:27

Various / Metal Massacre 5 (USA Metal Blade 3984-14045-2)

Used drive : PIONEER DVD-RW DVR-215 Adapter: 5 ID: 0

Read mode : Secure
Utilize accurate stream : Yes
Defeat audio cache : Yes
Make use of C2 pointers : No

Read offset correction : 48
Overread into Lead-In and Lead-Out : No
Fill up missing offset samples with silence : Yes
Delete leading and trailing silent blocks : No
Null samples used in CRC calculations : Yes
Used interface : Native Win32 interface for Win NT & 2000

Used output format : User Defined Encoder
Selected bitrate : 1024 kBit/s
Quality : High
Add ID3 tag : No
Command line compressor : C:\Program Files (x86)\Exact Audio Copy\Flac\flac.exe
Additional command line options : -8 -V %s


TOC of the extracted CD

Track | Start | Length | Start sector | End sector
---------------------------------------------------------
1 | 0:00.00 | 3:27.52 | 0 | 15576
2 | 3:27.52 | 5:09.12 | 15577 | 38763
3 | 8:36.64 | 3:35.69 | 38764 | 54957
4 | 12:12.58 | 3:50.09 | 54958 | 72216
5 | 16:02.67 | 3:52.61 | 72217 | 89677
6 | 19:55.53 | 6:20.72 | 89678 | 118249
7 | 26:16.50 | 4:27.15 | 118250 | 138289
8 | 30:43.65 | 3:27.12 | 138290 | 153826
9 | 34:11.02 | 3:49.68 | 153827 | 171069
10 | 38:00.70 | 2:50.72 | 171070 | 183891
11 | 40:51.67 | 4:07.73 | 183892 | 202489
12 | 44:59.65 | 4:27.17 | 202490 | 222531


Range status and errors

Selected range

Filename D:\bki71\Metal Massacre\Various - Metal Massacre 5 (USA Metal Blade 3984-14045-2).wav

Peak level 94.6 %
Range quality 100.0 %
Test CRC 19C4D9E5
Copy CRC 19C4D9E5
Copy OK

No errors occurred


AccurateRip summary

Track 1 accurately ripped (confidence 1) [08576313]
Track 2 accurately ripped (confidence 1) [B3CC699D]
Track 3 accurately ripped (confidence 1) [61F7E72B]
Track 4 accurately ripped (confidence 1) [07D74B2A]
Track 5 accurately ripped (confidence 1) [F12460DA]
Track 6 accurately ripped (confidence 1) [58EBB204]
Track 7 accurately ripped (confidence 1) [DC369DF4]
Track 8 accurately ripped (confidence 1) [25E226DC]
Track 9 accurately ripped (confidence 1) [4C644A96]
Track 10 accurately ripped (confidence 1) [32609CD7]
Track 11 accurately ripped (confidence 1) [F580C5C8]
Track 12 accurately ripped (confidence 1) [E022F918]

All tracks accurately ripped

End of status report

cue
REM GENRE Metal
REM DATE 1994
REM DISCID A50B970C
REM COMMENT "ExactAudioCopy v0.99pb5"
PERFORMER "Various"
TITLE "Metal Massacre 5 (USA Metal Blade 3984-14045-2)"
FILE "Various - Metal Massacre 5 (USA Metal Blade 3984-14045-2).flac" WAVE
TRACK 01 AUDIO
TITLE "Torture Me"
PERFORMER "Omen"
INDEX 01 00:00:00
TRACK 02 AUDIO
TITLE "Condemned To The Gallows"
PERFORMER "Voivod"
INDEX 00 03:26:00
INDEX 01 03:27:52
TRACK 03 AUDIO
TITLE "(Call On) The Attacker"
PERFORMER "Attacker"
INDEX 00 08:34:71
INDEX 01 08:36:64
TRACK 04 AUDIO
TITLE "Nightmare"
PERFORMER "Future Tense"
INDEX 00 12:11:17
INDEX 01 12:12:58
TRACK 05 AUDIO
TITLE "Death Rider"
PERFORMER "Overkill"
INDEX 00 16:01:15
INDEX 01 16:02:67
TRACK 06 AUDIO
TITLE "Soldier Boy"
PERFORMER "Fates Warning"
INDEX 00 19:54:11
INDEX 01 19:55:53
TRACK 07 AUDIO
TITLE "The Brave"
PERFORMER "Metal Church"
INDEX 00 26:15:09
INDEX 01 26:16:50
TRACK 08 AUDIO
TITLE "Destroyer"
PERFORMER "Lethyl Synn"
INDEX 00 30:42:16
INDEX 01 30:43:65
TRACK 09 AUDIO
TITLE "The Warrior"
PERFORMER "Final Warning"
INDEX 00 34:09:73
INDEX 01 34:11:02
TRACK 10 AUDIO
TITLE "Crucifixion"
PERFORMER "Hellhammer"
INDEX 00 38:00:16
INDEX 01 38:00:70
TRACK 11 AUDIO
TITLE "Marching Saphroyites"
PERFORMER "Mace"
INDEX 00 40:50:03
INDEX 01 40:51:67
TRACK 12 AUDIO
TITLE "End Of Time"
PERFORMER "Jesters Of Destiny"
INDEX 00 44:58:07
INDEX 01 44:59:65

_________________


Top
 Profile E-mail  
 
Display posts from previous:  Sort by  
Post new topic Reply to topic  [ 8 posts ] 

All times are UTC + 3 hours


Who is online

Users browsing this forum: No registered users and 1 guest


You cannot post new topics in this forum
You cannot reply to topics in this forum
You cannot edit your posts in this forum
You cannot delete your posts in this forum
You cannot post attachments in this forum

Search for:
Яндекс.Метрика
Powered by phpBB © 2000, 2002, 2005, 2007 phpBB Group