\m/ 80's metal \m/

Информационно-аналитический форум "80 см пыли" (In Search We Trust) "У нас никто никуда не спешит"
Me For You - http://me-4u.com
It is currently 27 Jun 2019

All times are UTC + 3 hours

Spoiler
Chat - temporary registration for foreign users (please leave your application here)







Post new topic Reply to topic  [ 3 posts ] 
Author Message
 
PostPosted: 04 Apr 2010 
А может смените мне статус?..
User avatar
Joined: 22 Nov 2008
Posts: 970
Lоcаtion: Schelcovo,Russia
Age: 47
Name: Сергей
Image
Sleaze Rock - Smash It (1990)

Genre:Glam/Sleazy/Hard Rock
Year: 1990
Country: Germany
Bitrate: flac+cue+log+scans/mp3
Size: 421Mb/147Mb

Hard Sleaze Rock Compilation

Track List:
1. Hanoi Rocks - Until I get you
2. The Dogs Damour - I dont want you to go
3. Great Big Kisses - Desperado
4. Johnny Crash - Freedom road
5. The Quireboys - Sex party
6. Bang Tango - Dont stop now
7. Princess Pang - South St. kids
8. Fatal Flowers - How many years
9. Faster Pussycat - Babylon
10. Skid Row - 18 and life
11. Kill For Thrills - Brothers eyes
12. Enuff Znuff - New thing
13. Smack - Set me free
14. The Black Crowes - Jealous again
15. Sea Hags - Someday

Rare Sampler from Germany!

Диск предоставил Алексей "Alexbeer".Мой друг купил его в Люксенбурге,на блошином рынке.Великолепная подборка разнообразных команд.

"Куй"
REM DISCID B00E000F
REM COMMENT "ExactAudioCopy v0.95b4"
PERFORMER "Sleaze Rock"
TITLE "Sleaze Rock"
FILE "Sleaze Rock - Sleaze Rock.wav" WAVE
TRACK 01 AUDIO
TITLE "Hanoi Rocks / Until I Get You"
PERFORMER "Sleaze Rock"
INDEX 00 00:00:00
INDEX 01 00:00:38
TRACK 02 AUDIO
TITLE "The Dogs Dґ Amour / I Donґt Want You To Go"
PERFORMER "Sleaze Rock"
INDEX 00 04:36:55
INDEX 01 04:38:38
TRACK 03 AUDIO
TITLE "Great Big Kisses / Desperado"
PERFORMER "Sleaze Rock"
INDEX 00 08:27:25
INDEX 01 08:29:13
TRACK 04 AUDIO
TITLE "Johnny Crash / Freedom Road"
PERFORMER "Sleaze Rock"
INDEX 00 12:01:60
INDEX 01 12:03:38
TRACK 05 AUDIO
TITLE "The Quireboys / Sex Party"
PERFORMER "Sleaze Rock"
INDEX 00 15:04:58
INDEX 01 15:07:13
TRACK 06 AUDIO
TITLE "Bang Tango / Donґt Stop Now"
PERFORMER "Sleaze Rock"
INDEX 00 17:42:03
INDEX 01 17:44:13
TRACK 07 AUDIO
TITLE "Princess Pang / South St. Kids"
PERFORMER "Sleaze Rock"
INDEX 00 21:17:13
INDEX 01 21:19:63
TRACK 08 AUDIO
TITLE "Fatal Flowers / How Many Years"
PERFORMER "Sleaze Rock"
INDEX 00 24:17:60
INDEX 01 24:20:13
TRACK 09 AUDIO
TITLE "Faster Pussycat / Babylon"
PERFORMER "Sleaze Rock"
INDEX 00 28:36:73
INDEX 01 28:38:63
TRACK 10 AUDIO
TITLE "Skid Row / 18 And Life"
PERFORMER "Sleaze Rock"
INDEX 00 31:54:65
INDEX 01 31:57:38
TRACK 11 AUDIO
TITLE "Kill For Thrills / Brothers Eyes"
PERFORMER "Sleaze Rock"
INDEX 00 35:47:18
INDEX 01 35:49:38
TRACK 12 AUDIO
TITLE "Enuff ZґNuff / New Thing"
PERFORMER "Sleaze Rock"
INDEX 00 40:57:18
INDEX 01 40:59:38
TRACK 13 AUDIO
TITLE "Smack / Set Me Free"
PERFORMER "Sleaze Rock"
INDEX 00 45:15:58
INDEX 01 45:18:13
TRACK 14 AUDIO
TITLE "The Black Crowes / Jealous Again"
PERFORMER "Sleaze Rock"
INDEX 00 50:01:55
INDEX 01 50:04:13
TRACK 15 AUDIO
TITLE "Sea Hags / Someday"
PERFORMER "Sleaze Rock"
INDEX 00 54:37:45
INDEX 01 54:40:13


"Лог"
Отчёт EAC об извлечении, выполненном 4. апреля 2010, 10:58 для диска:
Sleaze Rock / Sleaze Rock

Дисковод: MATSHITADVD-RAM UJ-850S Adapter: 2 ID: 0
Режим чтения: Достоверный (C2: нет, Точный поток: да, Отключение кэша: да)
Коррекция смещения при чтении: 102
Способность читать области Lead-in и Lead-out : Нет

Выходной формат: Внутренние WAV-операции
44.100 Гц; 16 бит; стерео

Другие параметры:
Заполнение пропущенных сэмплов тишиной : Да
Удаление блоков с тишиной в начале и конце : Нет
Установленный внешний ASPI-интерфейс


Характеристики диапазона извлечения и сообщения об ошибках
Выбранный диапазон
Имя файла D:\Мои Документы\Моя музыка\Sleaze Rock - Sleaze Rock.wav

Пиковый уровень 100.0 %
Качество диапазона 100.0 %
CRC 18C30F79
Копирование... OK

Ошибок не произошло

Конец отчёта


Flac:
Narod
Mp3
Narod


Top
 Profile  
 
 
PostPosted: 04 Apr 2010 
хард н хэвщик (support team)
User avatar
Joined: 02 Jun 2008
Posts: 16881
Lоcаtion: Н.Новгород
Age: 32
Name: Артем
Сереж, я точно помню в мп3 версии от Алексбир была какая-то непонятка с правым и левым каналами. А как здесь?


Top
 Profile  
 
 
PostPosted: 04 Apr 2010 
А может смените мне статус?..
User avatar
Joined: 22 Nov 2008
Posts: 970
Lоcаtion: Schelcovo,Russia
Age: 47
Name: Сергей
Здесь всё по новому сделано,правда я этот альбом так и не прослушал на предмет расхождения каналов.


Top
 Profile  
 
Display posts from previous:  Sort by  
Post new topic Reply to topic  [ 3 posts ] 

All times are UTC + 3 hours


Who is online

Users browsing this forum: No registered users and 1 guest


You cannot post new topics in this forum
You cannot reply to topics in this forum
You cannot edit your posts in this forum
You cannot delete your posts in this forum
You cannot post attachments in this forum

Search for:
Яндекс.Метрика
cron
Powered by phpBB © 2000, 2002, 2005, 2007 phpBB Group