\m/ 80's metal \m/

Информационно-аналитический форум "80 см пыли" (In Search We Trust) "У нас никто никуда не спешит"
Me For You - http://me-4u.com
It is currently 17 Sep 2019

All times are UTC + 3 hours

Spoiler
Chat - temporary registration for foreign users (please leave your application here)







Post new topic Reply to topic  [ 21 posts ]  Go to page 1, 2  Next
Author Message
 
PostPosted: 14 Dec 2009 
спирт 100%
User avatar
Joined: 22 Sep 2008
Posts: 4468
Age: 48
Name: Саня
Первая половина у меня есть,нужна вторая или весь альбом.Может у кого есть.
Image
White Metal Warriors - Last Ship Home - 1991

01. Seventh Angel: Heed the Warning
02. Stairway: Anybody There?
03. Lazarus: Do Or Die
04. Detritus: Subliminal Division
05. Maverick: Sweet Release
06. Seventh Angel: Seven Angels
07. Stairway: Walk Away
08. Lazarus: Overpower
09. Detritus: Taste the Blood
10. Maverick: You'll Shine


Top
 Profile  
 
 
PostPosted: 14 Dec 2009 
хард н хэвщик (support team)
User avatar
Joined: 02 Jun 2008
Posts: 16881
Lоcаtion: Н.Новгород
Age: 32
Name: Артем
христметалл ?
скорее всего, смогу достать


Top
 Profile  
 
 
PostPosted: 14 Dec 2009 
спирт 100%
User avatar
Joined: 22 Sep 2008
Posts: 4468
Age: 48
Name: Саня
McKagan wrote:
христметалл ?

Судя по названию, да.
McKagan wrote:
скорее всего, смогу достать

:dance:


Top
 Profile  
 
 
PostPosted: 15 Dec 2009 
хард н хэвщик (support team)
User avatar
Joined: 02 Jun 2008
Posts: 16881
Lоcаtion: Н.Новгород
Age: 32
Name: Артем
За альбом спасибо Farren из страны кенгуру и динго :true:

Image

V/A - White Metal Warriors - Last Ship Home (1992) [256]

01. Seventh Angel: Heed the Warning
02. Stairway: Anybody There?
03. Lazarus: Do Or Die
04. Detritus: Subliminal Division
05. Maverick: Sweet Release
06. Seventh Angel: Seven Angels
07. Stairway: Walk Away
08. Lazarus: Overpower
09. Detritus: Taste the Blood
10. Maverick: You'll Shine

http://www.multiupload.com/6F16SU7ZX6


Top
 Profile  
 
 
PostPosted: 15 Dec 2009 
Персональный статус
User avatar
Joined: 10 Jun 2009
Posts: 388
Name: jose gomes
thank you Mckagan for sharing and for using muti-upload ! :thanx:


Top
 Profile E-mail  
 
 
PostPosted: 15 Dec 2009 
хард н хэвщик (support team)
User avatar
Joined: 02 Jun 2008
Posts: 16881
Lоcаtion: Н.Новгород
Age: 32
Name: Артем
are there any problems with narod,ru and ifolder,ru ? :oops:


Top
 Profile  
 
 
PostPosted: 15 Dec 2009 
Персональный статус
User avatar
Joined: 10 Jun 2009
Posts: 388
Name: jose gomes
No ! Not for me !!! :pardon:


Top
 Profile E-mail  
 
 
PostPosted: 15 Dec 2009 
хард н хэвщик (support team)
User avatar
Joined: 02 Jun 2008
Posts: 16881
Lоcаtion: Н.Новгород
Age: 32
Name: Артем
:dance: good!
How weather in Lisboa ? In my city -29 celsius Image


Top
 Profile  
 
 
PostPosted: 15 Dec 2009 
Персональный статус
User avatar
Joined: 10 Jun 2009
Posts: 388
Name: jose gomes
Huuuhhhh ! that's coolllddd !!! :shok:
Here we chilling already only with 2+ ! :nunu:


Top
 Profile E-mail  
 
 
PostPosted: 15 Dec 2009 
Персональный статус
User avatar
Joined: 10 Jun 2009
Posts: 388
Name: jose gomes
You guys in Russia are made of Iron !!! :nunu:


Top
 Profile E-mail  
 
 
PostPosted: 15 Dec 2009 
хард н хэвщик (support team)
User avatar
Joined: 02 Jun 2008
Posts: 16881
Lоcаtion: Н.Новгород
Age: 32
Name: Артем
:crazy:


Top
 Profile  
 
 
PostPosted: 15 Dec 2009 
Персональный статус
User avatar
Joined: 10 Jun 2009
Posts: 388
Name: jose gomes
I would die with that cold ! :cry:


Top
 Profile E-mail  
 
 
PostPosted: 15 Dec 2009 
*** Умер ***
User avatar
Joined: 25 Apr 2009
Posts: 2188
Lоcаtion: Санкт-Петербург
Age: 33
Name: Кирилл
Да уж,нашу зиму он точно бы непережил :zap:

Спасибо за альбом!


Top
 Profile E-mail  
 
 
PostPosted: 15 Dec 2009 
спирт 100%
User avatar
Joined: 22 Sep 2008
Posts: 4468
Age: 48
Name: Саня
Артём,БОЛЬШОЕ СПАСИБО!!! :thanx: :true:


Top
 Profile  
 
 
PostPosted: 22 Apr 2011 
Работнечег
User avatar
Joined: 28 Aug 2007
Posts: 5993
Lоcаtion: г. Москва
Age: 30
Name: Дима
Спасибо, Артём! :true:


Top
 Profile E-mail  
 
 
PostPosted: 16 Jun 2013 
Работнечег
User avatar
Joined: 28 Aug 2007
Posts: 5993
Lоcаtion: г. Москва
Age: 30
Name: Дима
Image

Band: Various Artists
Album: White Metal Warriors - Last Ship Home
Label: Edge Records
Genre: Heavy Metal, Thrash Metal
Country: Various
Format: Flac + Log + Cue + Covers
Size: 310 Mb

Tracklist:
01. Seventh Angel: Heed the Warning
02. Stairway: Anybody There?
03. Lazarus: Do Or Die
04. Detritus: Subliminal Division
05. Maverick: Sweet Release
06. Seventh Angel: Seven Angels
07. Stairway: Walk Away
08. Lazarus: Overpower
09. Detritus: Taste the Blood
10. Maverick: You'll Shine

LOG
Exact Audio Copy V0.99 prebeta 5 from 4. May 2009

EAC extraction logfile from 8. June 2013, 19:03

V/A - White Metal Warriors / Last Ship Home

Used drive : PIONEER DVD-RW DVR-116D Adapter: 0 ID: 0

Read mode : Secure
Utilize accurate stream : Yes
Defeat audio cache : Yes
Make use of C2 pointers : No

Read offset correction : 96
Overread into Lead-In and Lead-Out : No
Fill up missing offset samples with silence : Yes
Delete leading and trailing silent blocks : No
Null samples used in CRC calculations : Yes
Used interface : Native Win32 interface for Win NT & 2000

Used output format : User Defined Encoder
Selected bitrate : 32 kBit/s
Quality : High
Add ID3 tag : No
Command line compressor : C:\Program Files\Exact Audio Copy\Flac\flac.exe
Additional command line options : -6 -V %s


TOC of the extracted CD

Track | Start | Length | Start sector | End sector
---------------------------------------------------------
1 | 0:00.40 | 5:34.60 | 40 | 25149
2 | 5:35.25 | 3:19.52 | 25150 | 40126
3 | 8:55.02 | 5:07.15 | 40127 | 63166
4 | 14:02.17 | 4:24.48 | 63167 | 83014
5 | 18:26.65 | 4:17.37 | 83015 | 102326
6 | 22:44.27 | 6:29.55 | 102327 | 131556
7 | 29:14.07 | 4:39.28 | 131557 | 152509
8 | 33:53.35 | 4:43.42 | 152510 | 173776
9 | 38:37.02 | 3:26.53 | 173777 | 189279
10 | 42:03.55 | 4:55.37 | 189280 | 211441


Range status and errors

Selected range

Filename D:\Музыка\Lossless\White Metal Warriors - Last Ship Home (Split) (1991)\V A - White Metal Warriors - Last Ship Home.wav

Peak level 76.3 %
Range quality 99.9 %
Copy CRC 033D4182
Copy OK

No errors occurred


AccurateRip summary

Track 1 accurately ripped (confidence 2) [6C8EE8BA]
Track 2 accurately ripped (confidence 2) [22A814E2]
Track 3 accurately ripped (confidence 2) [0C8D93BE]
Track 4 accurately ripped (confidence 2) [BB444D8B]
Track 5 accurately ripped (confidence 2) [89608065]
Track 6 accurately ripped (confidence 2) [A99D525D]
Track 7 accurately ripped (confidence 2) [0ED4A179]
Track 8 accurately ripped (confidence 2) [58F0D4C5]
Track 9 accurately ripped (confidence 2) [FDFDC31D]
Track 10 accurately ripped (confidence 2) [EC54F219]

All tracks accurately ripped

End of status report

CUE
REM GENRE "Christian Metal"
REM DATE 1991
REM DISCID 820B030A
REM COMMENT "ExactAudioCopy v0.99pb5"
PERFORMER "V/A - White Metal Warriors "
TITLE "Last Ship Home"
FILE "V A - White Metal Warriors - Last Ship Home.flac" WAVE
TRACK 01 AUDIO
TITLE "Seventh Angel / Heed The Warning"
PERFORMER "V/A - White Metal Warriors "
INDEX 00 00:00:00
INDEX 01 00:00:40
TRACK 02 AUDIO
TITLE "Stairway / Anybody There"
PERFORMER "V/A - White Metal Warriors "
INDEX 00 05:33:00
INDEX 01 05:35:25
TRACK 03 AUDIO
TITLE "Lazarus / Do Or Die"
PERFORMER "V/A - White Metal Warriors "
INDEX 00 08:51:67
INDEX 01 08:55:02
TRACK 04 AUDIO
TITLE "Detritus / Subliminal Division"
PERFORMER "V/A - White Metal Warriors "
INDEX 00 13:58:27
INDEX 01 14:02:17
TRACK 05 AUDIO
TITLE "Maverick / Sweet Release"
PERFORMER "V/A - White Metal Warriors "
INDEX 00 18:23:12
INDEX 01 18:26:65
TRACK 06 AUDIO
TITLE "Seventh Angel / Seven Angels"
PERFORMER "V/A - White Metal Warriors "
INDEX 00 22:43:00
INDEX 01 22:44:27
TRACK 07 AUDIO
TITLE "Stairway / Walk Away"
PERFORMER "V/A - White Metal Warriors "
INDEX 00 29:09:55
INDEX 01 29:14:07
TRACK 08 AUDIO
TITLE "Lazarus / Overpower"
PERFORMER "V/A - White Metal Warriors "
INDEX 00 33:51:25
INDEX 01 33:53:35
TRACK 09 AUDIO
TITLE "Detritus / Taste The Blood"
PERFORMER "V/A - White Metal Warriors "
INDEX 00 38:32:67
INDEX 01 38:37:02
TRACK 10 AUDIO
TITLE "Maverick / You'll Shine"
PERFORMER "V/A - White Metal Warriors "
INDEX 00 42:03:17
INDEX 01 42:03:55


Rusfolder.ru

Собственно говоря, очень-очень хорошая сборка :true:


Top
 Profile E-mail  
 
 
PostPosted: 16 Jun 2013 
\m/ 80 см сала \m/
User avatar
Joined: 12 Mar 2012
Posts: 2590
Age: 26
Name: Nick
church, :thanx:

_________________
1990 AUROPHON BRAINSTORM (Germany) - lossless
1994 MAUSOLEUM CLASSIX (Belgium-Germany) - lossless
1998 VA - GRIM HARVEST - Complete Metal Massacre Volumes I-XII


Top
 Profile  
 
 
PostPosted: 16 Jun 2013 
спирт 100%
User avatar
Joined: 22 Sep 2008
Posts: 4468
Age: 48
Name: Саня
:true: Димон, Спасибо!!! :thanx:


Top
 Profile  
 
 
PostPosted: 20 Jun 2013 
\m/ 80 см сала \m/
User avatar
Joined: 12 Mar 2012
Posts: 2590
Age: 26
Name: Nick
MP3@320 CBR (+ covers): Download (Yandex-Disk)

_________________
1990 AUROPHON BRAINSTORM (Germany) - lossless
1994 MAUSOLEUM CLASSIX (Belgium-Germany) - lossless
1998 VA - GRIM HARVEST - Complete Metal Massacre Volumes I-XII


Top
 Profile  
 
 
PostPosted: 20 Jun 2013 
Хиппей (support team)
User avatar
Joined: 30 Jul 2007
Posts: 114364
Lоcаtion: Киев (Kyiv, UA)
Age: 46
Name: Andrey
church wrote:
Band: Various Artists
Album: White Metal Warriors - Last Ship Home

:thanx: :true: :true: :true:

mirror: F-Bit l Narod

_________________


Top
 Profile E-mail  
 
Display posts from previous:  Sort by  
Post new topic Reply to topic  [ 21 posts ]  Go to page 1, 2  Next

All times are UTC + 3 hours


Who is online

Users browsing this forum: No registered users and 1 guest


You cannot post new topics in this forum
You cannot reply to topics in this forum
You cannot edit your posts in this forum
You cannot delete your posts in this forum
You cannot post attachments in this forum

Search for:
Яндекс.Метрика
cron
Powered by phpBB © 2000, 2002, 2005, 2007 phpBB Group