\m/ 80's metal \m/

Информационно-аналитический форум "80 см пыли" (In Search We Trust) "У нас никто никуда не спешит"
Me For You - http://me-4u.com
It is currently 17 Sep 2019

All times are UTC + 3 hours

Spoiler
Chat - temporary registration for foreign users (please leave your application here)







Post new topic Reply to topic  [ 8 posts ] 
Author Message
 
PostPosted: 28 Oct 2009 
Хиппей (support team)
User avatar
Joined: 30 Jul 2007
Posts: 114364
Lоcаtion: Киев (Kyiv, UA)
Age: 46
Name: Andrey
VA - US Metal Vol.08 - Blitzkrieg - Assault - McBlade [ape]

Blitzkrieg (US) - 1985 - Ready For Action

Image

    1. Winner Takes All - 03:36
    2. Ready For Action - 02:59
    3. Young Forever - 03:40
    4. First Strike - 03:28
    5. Let Me Know - 03:39
    6. Misbeliever - 03:44

    TPT: 24:06

Так себе. Средненькая группка. Ничем не запомнилась.
Плюс ко всему, вернее, минус - на 14:35 диск подпрыгнул немного.


Assault (Can) - 1987 - Survival In The Street

Image

    1. Survival In The Street - 03:37
    2. Thunder Road - 03:45
    3. I.C.U.C. - 06:14
    4. Shuffle Off The Buffalo - 03:15
    5. Fight To Win - 03:26
    6. The Fire Within - 05:53
    7. Misery - 04:37
    8. Let The Beast Run Wild - 04:36

    TPT: 36:44

Канадский павернячокс. Неплохо так. Как и всё у канадцев - оригинальный спидо-павер. Но вот запись глухая. И заметно как частотки плавают... Однако, вторая сторона альбома оказалась намного громче и шумов куча.
Неужели так трудно было перед записью протереть винил? :fingal:


M.C. Blade - 1988 - Step into the Light

Image

    1. Step into the Light - 07:09
    2. Right for You - 03:18
    3. The Search - 04:15
    4. Let's Have the News - 03:20

    TPT: 17:23

Пожалуй лучшая группа на сборничке.
И по качеству запсии, и по музыке. приятный, мелодичный американ павер :meloman:


Итог - покупать данный диск смысла вообще не вижу, так как иногда мп3 звучат намного качественнее, чем этот лось, читай диск-бутлег :pardon:

Thanx for IronPriest from MMT

Mega
Narod

log
EAC extraction logfile from 12. October 2007, 21:04 for CD
Various / US Metal Vol. 08

Used drive : _NEC DVD_RW ND-2500A Adapter: 3 ID: 0
Read mode : Secure with NO C2, accurate stream, disable cache
Read offset correction : 48
Overread into Lead-In and Lead-Out : No

Used output format : C:\Archivos de programa\Exact Audio Copy\MAC.EXE (Monkey's Audio Lossless Encoder)
High Lossless Compression

Other options :
Fill up missing offset samples with silence : Yes
Delete leading and trailing silent blocks : No
Installed external ASPI interface


Range status and errors
Selected range
Filename C:\Documents and Settings\Kan\Escritorio\CDImage.wav

Peak level 100.0 %
Range quality 100.0 %
CRC C84196D2
Copy OK

No errors occured

End of status report


cue
PERFORMER "Various"
TITLE "US Metal Vol. 08"
FILE "CDImage.ape" WAVE
TRACK 01 AUDIO
TITLE "Winner Takes All"
PERFORMER "Winner Takes All"
FLAGS DCP
INDEX 01 00:00:00
TRACK 02 AUDIO
TITLE "Ready For Action"
PERFORMER "Ready For Action"
FLAGS DCP
INDEX 01 03:02:70
TRACK 03 AUDIO
TITLE "Young Forever"
PERFORMER "Young Forever"
FLAGS DCP
INDEX 01 06:08:64
TRACK 04 AUDIO
TITLE "First Strike"
PERFORMER "First Strike"
FLAGS DCP
INDEX 01 09:50:37
TRACK 05 AUDIO
TITLE "Let Me Know"
PERFORMER "Let Me Know"
FLAGS DCP
INDEX 01 12:46:58
TRACK 06 AUDIO
TITLE "Misbeliever"
PERFORMER "Misbeliever"
FLAGS DCP
INDEX 01 16:11:29
TRACK 07 AUDIO
TITLE "Survival In The Streets"
PERFORMER "Survival In The Streets"
FLAGS DCP
INDEX 01 19:52:29
TRACK 08 AUDIO
TITLE "Thunder Road"
PERFORMER "Thunder Road"
FLAGS DCP
INDEX 01 23:41:03
TRACK 09 AUDIO
TITLE "I.C.U.C."
PERFORMER "I.C.U.C."
FLAGS DCP
INDEX 01 27:36:29
TRACK 10 AUDIO
TITLE "Shuffle Off To Buffalo"
PERFORMER "Shuffle Off To Buffalo"
FLAGS DCP
INDEX 01 34:07:08
TRACK 11 AUDIO
TITLE "Fight to Win"
PERFORMER "Fight to Win"
FLAGS DCP
INDEX 01 37:26:33
TRACK 12 AUDIO
TITLE "The Fire Within"
PERFORMER "The Fire Within"
FLAGS DCP
INDEX 01 41:02:42
TRACK 13 AUDIO
TITLE "Misery"
PERFORMER "Misery"
FLAGS DCP
INDEX 01 47:11:01
TRACK 14 AUDIO
TITLE "Let The Beast Run Wild"
PERFORMER "Let The Beast Run Wild"
FLAGS DCP
INDEX 01 52:02:69
TRACK 15 AUDIO
TITLE "Step Into The Light"
PERFORMER "Step Into The Light"
FLAGS DCP
INDEX 01 56:49:33
TRACK 16 AUDIO
TITLE "The Search"
PERFORMER "The Search"
FLAGS DCP
INDEX 01 63:58:38
TRACK 17 AUDIO
TITLE "Right For You"
PERFORMER "Right For You"
FLAGS DCP
INDEX 01 67:17:06
TRACK 18 AUDIO
TITLE "Lets Have the News"
PERFORMER "Lets Have the News"
FLAGS DCP
INDEX 01 70:37:07

_________________


Top
 Profile E-mail  
 
 
PostPosted: 28 Oct 2009 
HAMMER
User avatar
Joined: 16 May 2009
Posts: 5488
Lоcаtion: Тверь
Age: 46
Name: Александр
Спасибо.


Top
 Profile E-mail  
 
 
PostPosted: 28 Oct 2009 
Я набрал 1000 сообщений!
User avatar
Joined: 25 Dec 2008
Posts: 1545
Age: 44
Name: Павел
Андрей и Олег,спасибо! :true:


Top
 Profile  
 
 
PostPosted: 28 Oct 2009 
Power Metal Maniac
User avatar
Joined: 09 Aug 2008
Posts: 6857
Lоcаtion: Москва
Age: 41
Name: Егор
:true:

_________________
Long Live Metal!


Top
 Profile  
 
 
PostPosted: 29 Oct 2009 
Труъ
User avatar
Joined: 14 Jul 2009
Posts: 158
Lоcаtion: Hell Is Here
Age: 49
Name: Adriano
Thank You !! :thanx:


Top
 Profile E-mail  
 
 
PostPosted: 13 Feb 2010 
хард н хэвщик (support team)
User avatar
Joined: 02 Jun 2008
Posts: 16881
Lоcаtion: Н.Новгород
Age: 32
Name: Артем
слушаю и давлюсь, насколько паршивые издания US METAL и HARD N HEAVY RARITIES.... а ведь когда еще трейдерствовал, с таким азартом глаза горели, когда выбирал из списочков альбомы.... в лосях , да еще и хард н хэви раритеты... название подкупало, а как диски пришли - тьфу :beee:


Top
 Profile  
 
 
PostPosted: 13 Feb 2010 
хард н хэвщик (support team)
User avatar
Joined: 02 Jun 2008
Posts: 16881
Lоcаtion: Н.Новгород
Age: 32
Name: Артем
Scatterbrain wrote:
Blitzkrieg (US) - 1985 - Ready For Action

вышел на ретроспект, в разы четче, может выложу как нить, как диск найду


Top
 Profile  
 
 
PostPosted: 14 Feb 2010 
Хиппей (support team)
User avatar
Joined: 30 Jul 2007
Posts: 114364
Lоcаtion: Киев (Kyiv, UA)
Age: 46
Name: Andrey
Давай. Может в лучшем качестве и альбом... получше станет :shok:

_________________


Top
 Profile E-mail  
 
Display posts from previous:  Sort by  
Post new topic Reply to topic  [ 8 posts ] 

All times are UTC + 3 hours


Who is online

Users browsing this forum: No registered users and 1 guest


You cannot post new topics in this forum
You cannot reply to topics in this forum
You cannot edit your posts in this forum
You cannot delete your posts in this forum
You cannot post attachments in this forum

Search for:
Яндекс.Метрика
Powered by phpBB © 2000, 2002, 2005, 2007 phpBB Group