\m/ 80's metal \m/

Информационно-аналитический форум "80 см пыли" (In Search We Trust) "У нас никто никуда не спешит"
Me For You - http://me-4u.com
It is currently 17 Sep 2019

All times are UTC + 3 hours

Spoiler
Chat - temporary registration for foreign users (please leave your application here)







Post new topic Reply to topic  [ 10 posts ] 
Author Message
 
PostPosted: 23 Oct 2009 
Хиппей (support team)
User avatar
Joined: 30 Jul 2007
Posts: 114365
Lоcаtion: Киев (Kyiv, UA)
Age: 46
Name: Andrey
* Перезалейте, пожалуйста: | Re-up please:
VA - US Metal Vol.02 - Street Child / Wikka / Lady Killer [ape]


    Image

http://i005.radikal.ru/0910/3c/a79e41a9f915.jpg

Genre: Heavy Metal
Location: USA
Format: ape+cue+log
Size: 492 Mb


Street Child - 1989 - Street Child

    1. Temple Of Set - 04:28
    2. Street Child - 06:08
    3. Erotic Insomnia - 05:03
    4. Building A Wall - 04:58

    TPT: 20:37

Wikka - 1988 - Wikka

    1. The Innocent - 03:26
    2. Sinister Minister - 03:56
    3. Pharao's Awakening - 04:26
    4. Beware Of The King - 04:50

    TPT: 14:40

Lady Killer - 1983 - Lady Killer

    1. Lightning Strikes Twice - 03:27
    2. You've Got Me Runnin' - 02:17
    3. Outta my Way - 05:40
    4. Last Chance Tonight - 04:50
    5. Go Ahead and Laugh - 04:07
    6. Breaking Away - 02:43
    7. Another Shot in the Dark - 03:53
    8. WasteNno Time - 04:46
    9. Lady Killer - 05:58

    TPT: 37:41

Хороший сборничек спид-хэви-павер альбомов, поднятых с винила. Качество записи достаточно высокое. Это цд-бутлег.
Больше всего понравилась Викка :meloman:


Все спасибо за лосика товарищам IronPriest и Олегу (spiralarch) :thanx:

Mega
Narod

log
EAC extraction logfile from 11. October 2007, 16:06 for CD
Unknown Artist / Unknown Title

Used drive : _NEC DVD_RW ND-2500A Adapter: 3 ID: 0
Read mode : Secure with NO C2, accurate stream, disable cache
Read offset correction : 48
Overread into Lead-In and Lead-Out : No

Used output format : C:\Archivos de programa\Exact Audio Copy\MAC.EXE (Monkey's Audio Lossless Encoder)
High Lossless Compression

Other options :
Fill up missing offset samples with silence : Yes
Delete leading and trailing silent blocks : No
Installed external ASPI interface


Range status and errors
Selected range
Filename C:\Documents and Settings\Kan\Escritorio\CDImage.wav

Peak level 89.1 %
Range quality 100.0 %
CRC 7E4D51F4
Copy OK

No errors occured

End of status report


cue
PERFORMER "Unknown Artist"
TITLE "Unknown Title"
FILE "CDImage.ape" WAVE
TRACK 01 AUDIO
TITLE "Track01"
PERFORMER "Unknown Artist"
FLAGS DCP
INDEX 01 00:00:00
TRACK 02 AUDIO
TITLE "Track02"
PERFORMER "Unknown Artist"
FLAGS DCP
INDEX 01 04:27:66
TRACK 03 AUDIO
TITLE "Track03"
PERFORMER "Unknown Artist"
FLAGS DCP
INDEX 01 10:36:45
TRACK 04 AUDIO
TITLE "Track04"
PERFORMER "Unknown Artist"
FLAGS DCP
INDEX 01 15:39:68
TRACK 05 AUDIO
TITLE "Track05"
PERFORMER "Unknown Artist"
FLAGS DCP
INDEX 01 20:38:56
TRACK 06 AUDIO
TITLE "Track06"
PERFORMER "Unknown Artist"
FLAGS DCP
INDEX 01 24:03:63
TRACK 07 AUDIO
TITLE "Track07"
PERFORMER "Unknown Artist"
FLAGS DCP
INDEX 01 27:58:72
TRACK 08 AUDIO
TITLE "Track08"
PERFORMER "Unknown Artist"
FLAGS DCP
INDEX 01 32:27:74
TRACK 09 AUDIO
TITLE "Track09"
PERFORMER "Unknown Artist"
FLAGS DCP
INDEX 01 37:24:42
TRACK 10 AUDIO
TITLE "Track10"
PERFORMER "Unknown Artist"
FLAGS DCP
INDEX 01 40:51:32
TRACK 11 AUDIO
TITLE "Track11"
PERFORMER "Unknown Artist"
FLAGS DCP
INDEX 01 43:08:60
TRACK 12 AUDIO
TITLE "Track12"
PERFORMER "Unknown Artist"
FLAGS DCP
INDEX 01 48:47:57
TRACK 13 AUDIO
TITLE "Track13"
PERFORMER "Unknown Artist"
FLAGS DCP
INDEX 01 53:38:02
TRACK 14 AUDIO
TITLE "Track14"
PERFORMER "Unknown Artist"
FLAGS DCP
INDEX 01 57:44:17
TRACK 15 AUDIO
TITLE "Track15"
PERFORMER "Unknown Artist"
FLAGS DCP
INDEX 01 60:27:45
TRACK 16 AUDIO
TITLE "Track16"
PERFORMER "Unknown Artist"
FLAGS DCP
INDEX 01 64:20:65
TRACK 17 AUDIO
TITLE "Track17"
PERFORMER "Unknown Artist"
FLAGS DCP
INDEX 01 69:07:01

_________________


Top
 Profile E-mail  
 
 
PostPosted: 23 Oct 2009 
Я набрал 1000 сообщений!
User avatar
Joined: 25 Dec 2008
Posts: 1545
Age: 44
Name: Павел
Ура!Ну Олег,ну спасибище! Андрей,спасибо за заливку! :true: :dance:


Top
 Profile  
 
 
PostPosted: 24 Oct 2009 
Прокъмитолист
User avatar
Joined: 12 Aug 2007
Posts: 6600
Lоcаtion: Санктъ-Петербуркъ
Age: 51
Name: Олекъ
мне-то за что? я только расшарил лосика. все спасибы IronPriest'у с ММТ :pardon:

_________________
прокъметол - это музыко, от которово есть прок (ы)


Top
 Profile  
 
 
PostPosted: 24 Oct 2009 
Хиппей (support team)
User avatar
Joined: 30 Jul 2007
Posts: 114365
Lоcаtion: Киев (Kyiv, UA)
Age: 46
Name: Andrey
Мдя уж, еле нашел там его через поиск (релиз) :oops:

_________________


Top
 Profile E-mail  
 
 
PostPosted: 24 Oct 2009 
Я набрал 1000 сообщений!
User avatar
Joined: 25 Dec 2008
Posts: 1545
Age: 44
Name: Павел
Этого лосика уже давно оттуда не скачать.Так что спасибо есть за что,Олег.


Top
 Profile  
 
 
PostPosted: 24 Oct 2009 
Power Metal Maniac
User avatar
Joined: 09 Aug 2008
Posts: 6857
Lоcаtion: Москва
Age: 41
Name: Егор
:true: :true: :true: :dance: :thanx: супер!

_________________
Long Live Metal!


Top
 Profile  
 
 
PostPosted: 29 Oct 2009 
Труъ
User avatar
Joined: 14 Jul 2009
Posts: 158
Lоcаtion: Hell Is Here
Age: 49
Name: Adriano
Many Thanx !! :true: :thanx:


Top
 Profile E-mail  
 
 
PostPosted: 20 Nov 2016 
5cm
User avatar
Joined: 28 Mar 2013
Posts: 66
Age: 28
Name: Erik
Sorry !!

Re-up this !!

Please !!

:shok: !!


Top
 Profile E-mail  
 
 
PostPosted: 20 Nov 2016 
Хиппей (support team)
User avatar
Joined: 30 Jul 2007
Posts: 114365
Lоcаtion: Киев (Kyiv, UA)
Age: 46
Name: Andrey
Иди отсюда, попрошайка :kro:

_________________


Top
 Profile E-mail  
 
 
PostPosted: 20 Nov 2016 
Хиппей (support team)
User avatar
Joined: 30 Jul 2007
Posts: 114365
Lоcаtion: Киев (Kyiv, UA)
Age: 46
Name: Andrey
Добавлен в тему "re-up".

_________________


Top
 Profile E-mail  
 
Display posts from previous:  Sort by  
Post new topic Reply to topic  [ 10 posts ] 

All times are UTC + 3 hours


Who is online

Users browsing this forum: No registered users and 2 guests


You cannot post new topics in this forum
You cannot reply to topics in this forum
You cannot edit your posts in this forum
You cannot delete your posts in this forum
You cannot post attachments in this forum

Search for:
Яндекс.Метрика
Powered by phpBB © 2000, 2002, 2005, 2007 phpBB Group