\m/ 80's metal \m/

Информационно-аналитический форум "80 см пыли" (In Search We Trust) "У нас никто никуда не спешит"
Me For You - http://me-4u.com
It is currently 26 Jun 2019

All times are UTC + 3 hours

Spoiler
Chat - temporary registration for foreign users (please leave your application here)







Post new topic Reply to topic  [ 1 post ] 
Author Message
 
PostPosted: 08 Oct 2009 
Дежурный по КУПу
User avatar
Joined: 17 Aug 2007
Posts: 5871
Age: 51
Name: Ге
Вытащено из КУПа, там похоже его не заметили :oops:

V.A. - 2001 - Breakin' The Law - A Tribute To Judas Priest
(Zebra Records, UK, CDM ZEB 17)

Image

01. Jani Lane 'WARRANT' / Hellion - Electric Eye (Synical Mix) 04:24
02. Joe LeSte 'BANG TANGO' / You Got Another Thing Coming (Buck Mix) 04:50
03. Taime Downe 'NEWLYDEADS - FASTER PUSSYCAT' / Hell Bent For Leather (Spahn Ranch Mix) 03:02
04. Chaz 'BONHAM' / Heading Out To The Highway (Meeks Mix) 04:01
05. Jizzy Pearl 'LOVE-HATE & RATT' / Turbo Lover 04:51
06. Spike 'LONDON QUIREBOYS' / Rock Forever (DJ Webern Remix) 03:40
07. ELECTRIC HELLFIRE CLUB / Green Manalishi (Godbox Mix) 03:47
08. Alex Mitchell 'CIRCUS OF POWER' / Steeler (Chemical Submission Mix) 03:52
09. Marq Torien 'BULLETBOYS' / Livin' After Midnight (Razed In Black Mix) 04:25
10. Phil Lewis 'L.A. GUNS' / Hot Rockin' (Interface Mix) 04:40
11. Kory Clarke 'WARRIOR SOUL' / Breakin' The Law (Synical Mix) 03:32
12. John Corabi 'UNION' / Delivering The Goods (Fire House Mix) 04:01

Еакнутый отчет
Exact Audio Copy V0.99 prebeta 4 from 23. January 2008

Отчёт EAC об извлечении, выполненном 3. октября 2009, 18:18

Various / An Industrial Rock Tribute To Judas Priest

Дисковод: _NEC DVD_RW ND-4571A Adapter: 1 ID: 1

Режим чтения : Достоверность
Использование точного потока : Да
Отключение кэша аудио : Да
Использование указателей C2 : Нет

Коррекция смещения при чтении : 48
Способность читать области Lead-in и Lead-out : Нет
Заполнение пропущенных сэмплов тишиной : Да
Удаление блоков с тишиной в начале и конце : Нет
При вычислениях CRC использовались нулевые сэмплы : Да
Интерфейс : Установленный внешний ASPI-интерфейс

Выходной формат : Внутренние WAV-операции
Формат сэмплов : 44.100 Гц; 16 бит; стерео


TOC извлечённого CD

Трек | Старт | Длительность | Начальный сектор | Конечный сектор
---------------------------------------------------------------------
1 | 0:00.00 | 4:24.04 | 0 | 19803
2 | 4:24.04 | 4:50.16 | 19804 | 41569
3 | 9:14.20 | 3:02.33 | 41570 | 55252
4 | 12:16.53 | 4:01.02 | 55253 | 73329
5 | 16:17.55 | 4:51.06 | 73330 | 95160
6 | 21:08.61 | 3:40.37 | 95161 | 111697
7 | 24:49.23 | 3:47.44 | 111698 | 128766
8 | 28:36.67 | 3:52.20 | 128767 | 146186
9 | 32:29.12 | 4:25.55 | 146187 | 166116
10 | 36:54.67 | 4:40.40 | 166117 | 187156
11 | 41:35.32 | 3:32.21 | 187157 | 203077
12 | 45:07.53 | 4:01.42 | 203078 | 221194


Характеристики диапазона извлечения и сообщения об ошибках

Выбранный диапазон

Имя файла C:\-= !LOSSLESS! =-\VA [2000-2001] [CD] Breakin' The Law - A Tribute To Judas Priest [EAC-APE]\Various - An Industrial Rock Tribute To Judas Priest.wav

Пиковый уровень 100.0 %
Качество диапазона 100.0 %
CRC копии 9E028183
Копирование... OK

Ошибок не произошло


AccurateRip: сводка

Трек 1 точность не определена (достоверность 1) [A755E9BF], AccurateRip вернул [B7E5C06F]
Трек 2 точность не определена (достоверность 1) [0F01036D], AccurateRip вернул [0906FE24]
Трек 3 точность не определена (достоверность 1) [C6558024], AccurateRip вернул [4566FE54]
Трек 4 точность не определена (достоверность 1) [C4DC2F0F], AccurateRip вернул [BFC3D775]
Трек 5 точность не определена (достоверность 1) [29F7C065], AccurateRip вернул [D7A5F2A7]
Трек 6 точность не определена (достоверность 1) [E7ABD1D1], AccurateRip вернул [4C0F4562]
Трек 7 точность не определена (достоверность 1) [D975FFE1], AccurateRip вернул [9E55E55C]
Трек 8 точность не определена (достоверность 1) [56EFF7CC], AccurateRip вернул [3D30185B]
Трек 9 точность не определена (достоверность 1) [EE1F4DA4], AccurateRip вернул [079C0EEE]
Трек 10 точность не определена (достоверность 1) [749CBDF3], AccurateRip вернул [97010576]
Трек 11 точность не определена (достоверность 1) [17625E88], AccurateRip вернул [B7F432B4]
Трек 12 точность не определена (достоверность 1) [46F92354], AccurateRip вернул [59B0612C]

Ни один трек не прошёл проверки на точность
В вашей базе может быть иной вариант штамповки диска

Конец отчёта


http://ifolder.ru/14314552
http://ifolder.ru/14314565
http://ifolder.ru/14314591
http://ifolder.ru/14314621

_________________
http://jp-mania.ru/
http://jp-tourdates.ucoz.ru/


Top
 Profile  
 
Display posts from previous:  Sort by  
Post new topic Reply to topic  [ 1 post ] 

All times are UTC + 3 hours


Who is online

Users browsing this forum: No registered users and 1 guest


You cannot post new topics in this forum
You cannot reply to topics in this forum
You cannot edit your posts in this forum
You cannot delete your posts in this forum
You cannot post attachments in this forum

Search for:
Яндекс.Метрика
Powered by phpBB © 2000, 2002, 2005, 2007 phpBB Group