\m/ 80's metal \m/

Информационно-аналитический форум "80 см пыли" (In Search We Trust) "У нас никто никуда не спешит"
Me For You - http://me-4u.com
It is currently 26 Jun 2019

All times are UTC + 3 hours

Spoiler
Chat - temporary registration for foreign users (please leave your application here)







Post new topic Reply to topic  [ 16 posts ] 
Author Message
 
PostPosted: 16 Feb 2009 
Пионэръ
User avatar
Joined: 20 Jan 2009
Posts: 28
Lоcаtion: Украина
Age: 43
Name: .
ищу этот сплит,буду очень признателен если кто поможет.


Top
 Profile  
 
 
PostPosted: 17 Feb 2009 
Хиппей (support team)
User avatar
Joined: 30 Jul 2007
Posts: 113137
Lоcаtion: Киев (Kyiv, UA)
Age: 46
Name: Andrey
Кирюха в ослике расшаривал как-то этот сплитик... :oops:


Top
 Profile E-mail  
 
 
PostPosted: 27 Feb 2009 
Пионэръ
User avatar
Joined: 20 Jan 2009
Posts: 28
Lоcаtion: Украина
Age: 43
Name: .
ослик это грустно


Top
 Profile  
 
 
PostPosted: 27 Feb 2009 
Хиппей (support team)
User avatar
Joined: 30 Jul 2007
Posts: 113137
Lоcаtion: Киев (Kyiv, UA)
Age: 46
Name: Andrey
Да. Тем более файл там дохленький уже
Хмм, я кажись таки успел сплитик скачать. Скоро проверю.


Top
 Profile E-mail  
 
 
PostPosted: 28 Feb 2009 
Thrasher
User avatar
Joined: 07 Oct 2007
Posts: 2760
Lоcаtion: Russia, Moscow
Age: 35
Name: Drunk & Evil
ага, расшаривал етот сплитик, было дело, по теме - сплит офигенный :true: :true: :true: , но перериповать не буду, ибо хрен знаю как ЦД-Рум на ноуте прально настроить :fingal:

_________________
ВОДКА, БАБЫ И БЛЮЗ / 40° till death... :bodun:
One time we saw some hookers, but when we got closer, we realised it was Mötley Crüe. ©


Top
 Profile  
 
 
PostPosted: 28 Feb 2009 
Хиппей (support team)
User avatar
Joined: 30 Jul 2007
Posts: 113137
Lоcаtion: Киев (Kyiv, UA)
Age: 46
Name: Andrey
Облазил все нычки. Не качал я этот слепленный альбомчик :shok:
Хотя есть еще вариант, что он лежит на большом винте, к которому очен долго буду проползать... :oops:
Но надежды не теряем. Кто-то ж еще его качал точно :dance:


Top
 Profile E-mail  
 
 
PostPosted: 01 Mar 2009 
Пионэръ
User avatar
Joined: 20 Jan 2009
Posts: 28
Lоcаtion: Украина
Age: 43
Name: .
спасибо за понимание!


Top
 Profile  
 
 
PostPosted: 19 Oct 2009 
хард н хэвщик (support team)
User avatar
Joined: 02 Jun 2008
Posts: 16881
Lоcаtion: Н.Новгород
Age: 32
Name: Артем
хм, как-то нехорошо отдинамили :umnik: ну вот здесь хотя бы покачай: http://nuclear-legions.blogspot.com/200 ... -2006.html


Top
 Profile  
 
 
PostPosted: 09 Oct 2011 
консэрваторъ
User avatar
Joined: 11 Aug 2007
Posts: 17005
Lоcаtion: Псков
Age: 45
Name: Сергей
А знаете, чем ещё примечателен этот сплит?...

V/A - 2006 - Sacrificial Blood/Zombie (Split)

Image

Sacrificial Blood:
1. Reign of Hate 03:47
2. Evil Force 06:33
3. The End 04:33
4. Shellshock (Tank Cover) 02:09
5. Searchlights (Oz Cover) 02:41
Zombie:
6. Mashed Brains 05:20
7. Humans to Kill 04:06
8. Zengaia 05:18
9. Living Dead 04:21
10. Night Slasher 04:12

Посмотрите на состав Zombie:
Westley Callay - Bass
Ryan Bates - Drums
Adam Carroll - Guitars
Darren Greene - Guitars
John Kevill - Vocals

Здесь три человека, которые создали весьма популярную нынче команду Warbringer :true:
Adam Carroll - гит., John Kevill - вок. и Ryan Bates - уд. Они даже впоследствие в составе Warbringer переписали две песни из творчества Zombie и добавили их бонусами на свои альбомы... "Nightslasher" (название трека стало писаться слитно!) на альбом 2008 War Without End и "Humans To Kill" на альбом 2009 Waking Into Nightmares...

Этот сплит в 320к выложен сейчас на МА человеком под ником aesteticvice, за что ему конечно же огромнейшее спасибо!!! Не рекомендую тупо переливать архив на другие ФО, т.к. он повреждён!

В архиве полные сканы! Кстати, фамилия Джона написана с одним L...

Image

P.S. Перезаписанный Варбрингерами трек Humans To Kill был добавлен бонусом только на японский релиз альбома Waking Into Nightmares и поэтому жестоко мной сейчас ищется :dash: Вечером добавлю запрос в бонус-треки...

_________________
THRASH 'EM ALL


Top
 Profile E-mail  
 
 
PostPosted: 10 Oct 2011 
Хиппей (support team)
User avatar
Joined: 30 Jul 2007
Posts: 113137
Lоcаtion: Киев (Kyiv, UA)
Age: 46
Name: Andrey
Спасибо за поднятую тему.
Качаю, завтра гляну, что там не так...

_________________


Top
 Profile E-mail  
 
 
PostPosted: 10 Oct 2011 
Хиппей (support team)
User avatar
Joined: 30 Jul 2007
Posts: 113137
Lоcаtion: Киев (Kyiv, UA)
Age: 46
Name: Andrey
Скачал, распаковал (там есть инфа для восстановления). Днём прослушаю, отпишусь. Если что, перезалью :pardon:

_________________


Top
 Profile E-mail  
 
 
PostPosted: 10 Oct 2011 
Хиппей (support team)
User avatar
Joined: 30 Jul 2007
Posts: 113137
Lоcаtion: Киев (Kyiv, UA)
Age: 46
Name: Andrey
Ппц, здесь качество звука :beee: Зато трушно, как в 80-е. Андерграунд и утробный вокал Сакрифайсов (в стиле бразильцев Овердоз) :zo:

Но музыка весьма достойная :true: :true: :true:

Вторая группа понравилась больше (закос под Slayer) :true:

Sacrificial Blood/Zombie - 2006 - Split [320]

MultiUp l Narod

_________________


Top
 Profile E-mail  
 
 
PostPosted: 10 Oct 2011 
консэрваторъ
User avatar
Joined: 11 Aug 2007
Posts: 17005
Lоcаtion: Псков
Age: 45
Name: Сергей
Scatterbrain wrote:
Sacrificial Blood - 2006 - Zombie [320]

:shok: Группа Сакрифайс Блуд, альбом 2006-ого года Зомби? :smile:
Спасибо Андрей за труды! А рекса чего не снял?

_________________
THRASH 'EM ALL


Top
 Profile E-mail  
 
 
PostPosted: 10 Oct 2011 
Хиппей (support team)
User avatar
Joined: 30 Jul 2007
Posts: 113137
Lоcаtion: Киев (Kyiv, UA)
Age: 46
Name: Andrey
splatty wrote:
Группа Сакрифайс Блуд, альбом 2006-ого года Зомби?

Ща подправлю :crazy:

_________________


Top
 Profile E-mail  
 
 
PostPosted: 01 Feb 2013 
ТрэшЭрос
User avatar
Joined: 18 Jul 2011
Posts: 2303
Lоcаtion: Гулькевичи
Age: 44
Name: Александр
:losik:

_________________
Thrash no trash!!!


Top
 Profile E-mail  
 
 
PostPosted: 21 Jul 2013 
Хиппей (support team)
User avatar
Joined: 30 Jul 2007
Posts: 113137
Lоcаtion: Киев (Kyiv, UA)
Age: 46
Name: Andrey
Скачал с торрента по ссылке выше :thanx:

VA - Sacrificial Blood & Zombie - 2006 - Split CD [flac]

true scans =))
ImageImageImageImageImageImage


F-Bit l Narod

В общем, первая группа хрень никакущая, вторая хрень толковая :meloman:

log
Exact Audio Copy V0.99 prebeta 5 from 4. May 2009

Отчёт EAC об извлечении, выполненном 23. января 2013, 16:10

Various / Custom Music CD

Дисковод: HL-DT-STDVD-RAM GH22NP20 Adapter: 0 ID: 0

Режим чтения : Достоверность
Использование точного потока : Да
Отключение кэша аудио : Да
Использование указателей C2 : Нет

Коррекция смещения при чтении : 102
Способность читать области Lead-in и Lead-out : Нет
Заполнение пропущенных сэмплов тишиной : Да
Удаление блоков с тишиной в начале и конце : Нет
При вычислениях CRC использовались нулевые сэмплы : Да
Интерфейс : Встроенный Win32-интерфейс для Win NT/2000

Выходной формат : Пользовательский кодировщик
Выбранный битрейт : 1024 kBit/s
Качество : Высокий
Добавление ID3-тэга : Нет
Утилита сжатия : C:\Program Files\Exact Audio Copy\Flac\flac.exe
Дополнительные параметры : -8 -V %s


TOC извлечённого CD

Трек | Старт | Длительность | Начальный сектор | Конечный сектор
---------------------------------------------------------------------
1 | 0:00.00 | 3:47.17 | 0 | 17041
2 | 3:47.17 | 6:33.55 | 17042 | 46571
3 | 10:20.72 | 4:33.27 | 46572 | 67073
4 | 14:54.24 | 2:09.34 | 67074 | 76782
5 | 17:03.58 | 2:41.44 | 76783 | 88901
6 | 19:45.27 | 5:20.47 | 88902 | 112948
7 | 25:05.74 | 4:06.02 | 112949 | 131400
8 | 29:12.01 | 5:18.60 | 131401 | 155310
9 | 34:30.61 | 4:21.53 | 155311 | 174938
10 | 38:52.39 | 4:12.36 | 174939 | 193874


Характеристики диапазона извлечения и сообщения об ошибках

Выбранный диапазон

Имя файла C:\EAC\Various - Custom Music CD.wav

Пиковый уровень 100.0 %
Качество диапазона 100.0 %
CRC теста C303F652
CRC копии C303F652
Копирование... OK

Ошибок не произошло


AccurateRip: сводка

Трек 1 нет в базе данных
Трек 2 нет в базе данных
Трек 3 нет в базе данных
Трек 4 нет в базе данных
Трек 5 нет в базе данных
Трек 6 нет в базе данных
Трек 7 нет в базе данных
Трек 8 нет в базе данных
Трек 9 нет в базе данных
Трек 10 нет в базе данных

Ни одного трека нет в базе AccurateRip

Конец отчёта

cue
REM DISCID 7E0A190A
REM COMMENT "ExactAudioCopy v0.99pb5"
PERFORMER "Various"
TITLE "Custom Music CD"
FILE "Various - Custom Music CD.flac" WAVE
TRACK 01 AUDIO
TITLE "01 Reign of Hate"
PERFORMER "01 Reign of Hate"
FLAGS DCP
INDEX 01 00:00:00
TRACK 02 AUDIO
TITLE "02 Evil Force"
PERFORMER "02 Evil Force"
FLAGS DCP
INDEX 01 03:47:17
TRACK 03 AUDIO
TITLE "03 The End"
PERFORMER "03 The End"
FLAGS DCP
INDEX 01 10:20:72
TRACK 04 AUDIO
TITLE "04 Shellshock (Tank Cover)"
PERFORMER "04 Shellshock (Tank Cover)"
FLAGS DCP
INDEX 01 14:54:24
TRACK 05 AUDIO
TITLE "05 Searchlights (Oz Cover)"
PERFORMER "05 Searchlights (Oz Cover)"
FLAGS DCP
INDEX 01 17:03:58
TRACK 06 AUDIO
TITLE "06 Mashed Brains"
PERFORMER "06 Mashed Brains"
FLAGS DCP
INDEX 01 19:45:27
TRACK 07 AUDIO
TITLE "07 Humans to Kill"
PERFORMER "07 Humans to Kill"
FLAGS DCP
INDEX 01 25:05:74
TRACK 08 AUDIO
TITLE "08 Zengaia"
PERFORMER "08 Zengaia"
FLAGS DCP
INDEX 01 29:12:01
TRACK 09 AUDIO
TITLE "09 Living Dead"
PERFORMER "09 Living Dead"
FLAGS DCP
INDEX 01 34:30:61
TRACK 10 AUDIO
TITLE "10 Nightslasher"
PERFORMER "10 Nightslasher"
FLAGS DCP
INDEX 01 38:52:39

_________________


Top
 Profile E-mail  
 
Display posts from previous:  Sort by  
Post new topic Reply to topic  [ 16 posts ] 

All times are UTC + 3 hours


Who is online

Users browsing this forum: No registered users and 1 guest


You cannot post new topics in this forum
You cannot reply to topics in this forum
You cannot edit your posts in this forum
You cannot delete your posts in this forum
You cannot post attachments in this forum

Search for:
Яндекс.Метрика
Powered by phpBB © 2000, 2002, 2005, 2007 phpBB Group