\m/ 80's metal \m/

Информационно-аналитический форум "80 см пыли" (In Search We Trust) "У нас никто никуда не спешит"
Me For You - http://me-4u.com
It is currently 17 Sep 2019

All times are UTC + 3 hours

Spoiler
Chat - temporary registration for foreign users (please leave your application here)







Post new topic Reply to topic  [ 1 post ] 
Author Message
 
PostPosted: 09 Apr 2019 
Работнечег
User avatar
Joined: 28 Aug 2007
Posts: 5993
Lоcаtion: г. Москва
Age: 30
Name: Дима
Image

Year: 1996
Genre: Death Metal, Heavy Metal, Power Metal
Label: Pentagon Sound Production
Format: FLAC + LOG + CUE + covers

Tracklist:
1. Cornucopia - In Remembrance
2. Cornucopia - Hate over Mind
3. Cornucopia - Drowned in Sorrow
4. Hard Booze - Pay the Price
5. Hard Booze - During You Die
6. Hard Booze - Kill It
7. Cavillator - Into the Depths of Pain
8. Cavillator - Don't Take My Illusion
9. Cavillator - Dark Suns
10. Always Average - M. Otionally Queer
11. Always Average - Satistical Average
12. Always Average - Verbal Eis
13. Backhill Natives - Private Hell
14. Backhill Natives - When Fists Speak
15. Backhill Natives - Lying There

LOG
Exact Audio Copy V1.3 from 2. September 2016

EAC extraction logfile from 23. March 2019, 16:32

Various Artists / Children Of Tomorrow Vol. 4

Used drive : PIONEER DVD-RW DVR-221 Adapter: 1 ID: 0

Read mode : Secure
Utilize accurate stream : Yes
Defeat audio cache : Yes
Make use of C2 pointers : No

Read offset correction : 6
Overread into Lead-In and Lead-Out : No
Fill up missing offset samples with silence : Yes
Delete leading and trailing silent blocks : No
Null samples used in CRC calculations : Yes
Used interface : Native Win32 interface for Win NT & 2000

Used output format : User Defined Encoder
Selected bitrate : 768 kBit/s
Quality : High
Add ID3 tag : No
Command line compressor : C:\Program Files (x86)\Exact Audio Copy\FLAC\FLAC.EXE
Additional command line options : -6 -V -T "ARTIST=%artist%" -T "TITLE=%title%" -T "ALBUM=%albumtitle%" -T "DATE=%year%" -T "TRACKNUMBER=%tracknr%" -T "GENRE=%genre%" -T "COMMENT=%comment%" -T "BAND=%albuminterpret%" -T "ALBUMARTIST=%albuminterpret%" -T "COMPOSER=%composer%" %haslyrics%--tag-from-file=LYRICS="%lyricsfile%"%haslyrics% -T "DISCNUMBER=%cdnumber%" -T "TOTALDISCS=%totalcds%" -T "TOTALTRACKS=%numtracks%" %hascover%--picture="%coverfile%"%hascover% %source% -o %dest%


TOC of the extracted CD

Track | Start | Length | Start sector | End sector
---------------------------------------------------------
1 | 0:00.00 | 4:36.69 | 0 | 20768
2 | 4:36.69 | 3:44.11 | 20769 | 37579
3 | 8:21.05 | 5:14.00 | 37580 | 61129
4 | 13:35.05 | 4:15.67 | 61130 | 80321
5 | 17:50.72 | 5:16.50 | 80322 | 104071
6 | 23:07.47 | 4:17.45 | 104072 | 123391
7 | 27:25.17 | 4:32.53 | 123392 | 143844
8 | 31:57.70 | 4:23.45 | 143845 | 163614
9 | 36:21.40 | 5:15.72 | 163615 | 187311
10 | 41:37.37 | 5:19.10 | 187312 | 211246
11 | 46:56.47 | 4:19.10 | 211247 | 230681
12 | 51:15.57 | 5:26.33 | 230682 | 255164
13 | 56:42.15 | 3:53.52 | 255165 | 272691
14 | 60:35.67 | 3:48.20 | 272692 | 289811
15 | 64:24.12 | 5:12.63 | 289812 | 313274


Range status and errors

Selected range

Filename D:\Музыка\Lossless\VA - Children Of Tomorrow Vol. 4\Various Artists - Children Of Tomorrow Vol. 4.wav

Peak level 98.9 %
Extraction speed 6.2 X
Range quality 100.0 %
Copy CRC C1563F49
Copy OK

No errors occurred

End of status report

---- CUETools DB Plugin V2.1.6

[CTDB TOCID: T7d5kdX_y6b6BQWUuc9lhG78UiA-] disk not present in database
Submit result: T7d5kdX_y6b6BQWUuc9lhG78UiA- has been uploaded

CUE
REM GENRE Metal
REM DATE 1996
REM DISCID EF10510F
REM COMMENT "ExactAudioCopy v1.3"
PERFORMER "Various Artists"
TITLE "Children Of Tomorrow Vol. 4"
REM COMPOSER ""
FILE "Various Artists - Children Of Tomorrow Vol. 4.flac" WAVE
TRACK 01 AUDIO
TITLE "In Rememberance"
PERFORMER "Cornucopia"
REM COMPOSER ""
INDEX 01 00:00:00
TRACK 02 AUDIO
TITLE "Hate Over Mind"
PERFORMER "Cornucopia"
REM COMPOSER ""
INDEX 00 04:35:03
INDEX 01 04:36:69
TRACK 03 AUDIO
TITLE "Drowned In Sorrow"
PERFORMER "Cornucopia"
REM COMPOSER ""
INDEX 00 08:19:49
INDEX 01 08:21:05
TRACK 04 AUDIO
TITLE "Pay The Price"
PERFORMER "Hard Booze"
REM COMPOSER ""
INDEX 00 13:31:54
INDEX 01 13:35:05
TRACK 05 AUDIO
TITLE "During You Die"
PERFORMER "Hard Booze"
REM COMPOSER ""
INDEX 00 17:49:57
INDEX 01 17:50:72
TRACK 06 AUDIO
TITLE "Kill It"
PERFORMER "Hard Booze"
REM COMPOSER ""
INDEX 00 23:06:22
INDEX 01 23:07:47
TRACK 07 AUDIO
TITLE "Into The Depth Of Pain"
PERFORMER "Cavillator"
REM COMPOSER ""
INDEX 00 27:23:06
INDEX 01 27:25:17
TRACK 08 AUDIO
TITLE "Don't Take My Illusion"
PERFORMER "Cavillator"
REM COMPOSER ""
INDEX 01 31:57:70
TRACK 09 AUDIO
TITLE "Dark Suns"
PERFORMER "Cavillator"
REM COMPOSER ""
INDEX 00 36:19:62
INDEX 01 36:21:40
TRACK 10 AUDIO
TITLE "M. Ottionally Queer"
PERFORMER "Always Average"
REM COMPOSER ""
INDEX 00 41:34:08
INDEX 01 41:37:37
TRACK 11 AUDIO
TITLE "Satistical Average"
PERFORMER "Always Average"
REM COMPOSER ""
INDEX 00 46:54:55
INDEX 01 46:56:47
TRACK 12 AUDIO
TITLE "Verbal Eis"
PERFORMER "Always Average"
REM COMPOSER ""
INDEX 00 51:13:52
INDEX 01 51:15:57
TRACK 13 AUDIO
TITLE "Private Hell"
PERFORMER "Backhill Natives"
REM COMPOSER ""
INDEX 00 56:40:42
INDEX 01 56:42:15
TRACK 14 AUDIO
TITLE "When Fists Speak"
PERFORMER "Backhill Natives"
REM COMPOSER ""
INDEX 01 60:35:67
TRACK 15 AUDIO
TITLE "Lying There"
PERFORMER "Backhill Natives"
REM COMPOSER ""
INDEX 01 64:24:12


Yadi

Компиляция покупалась в основном из-за группы Cavillator, которая находится у нас в поиске. На сборнике представлены 5 андеграундных групп, на архивах есть только Cornucopia и Cavillator. Начинается всё с трех дэтовых небыстрых песенок от группы Cornucopia. Не являюсь фанатом жанра, но вполне достойно, мне понравилось! Далее эстафету подхватывают Hard Booze, которых я бы отнес к хэви с перегруженными гитарками и хрипловато-пропитым голосом вокалиста. Также вполне достойные 3 песни. Далее Cavillator выделяются выделяются более привычным уху Power Metal, без влияния 90-х, но мне понравилась только первая их песня, остальные слабоваты. Always Average я бы описал как хэви с рок н роллом, бодренько, довольно быстро, но как-то желания переслушивать не возникло. Backhill Natives понравились, самая легкая группа на сборнике с приятным вокалом.

Темы по Cavillator:
Запрос
Cavillator - (Germany) - 1991 - Gate to the Golden Age (Demo) (tape rip 16/44)


Top
 Profile E-mail  
 
Display posts from previous:  Sort by  
Post new topic Reply to topic  [ 1 post ] 

All times are UTC + 3 hours


Who is online

Users browsing this forum: No registered users and 1 guest


You cannot post new topics in this forum
You cannot reply to topics in this forum
You cannot edit your posts in this forum
You cannot delete your posts in this forum
You cannot post attachments in this forum

Search for:
Яндекс.Метрика
cron
Powered by phpBB © 2000, 2002, 2005, 2007 phpBB Group