\m/ 80's metal \m/

Информационно-аналитический форум "80 см пыли" (In Search We Trust) "У нас никто никуда не спешит"
Me For You - http://me-4u.com
It is currently 27 Jun 2019

All times are UTC + 3 hours

Spoiler
Chat - temporary registration for foreign users (please leave your application here)







Post new topic Reply to topic  [ 38 posts ]  Go to page 1, 2  Next
Author Message
 
PostPosted: 12 Sep 2016 
Partisanen - nicht kapitulieren!!
User avatar
Joined: 25 Dec 2011
Posts: 7020
Lоcаtion: партизанские леса
Age: 46
Name: Владимир
VA 2015 - Thunder And Steel Down Under - A Tribute To Riot
Image

Genre : Hard Rock/Heavy Metal
Country : Germany
Label : Skol Records
Tracks : 14
Playtime : 00:53:28
Size : 139 MB (scans incl.)
Codec : MPEG 1 Layer III/320 kbps

Tracklist :
01. Ferdy Doerngers - Soldier (02:15)
02. Axel Rudi Pell - Warrior (03:42)
03. Attacker - Fire Down Under (02:37)
04. Walpyrgus - Outlaw (03:55)
05. Savage Master - Swords & Tequila (03:10)
06. Angelo Perlepes Mystery - Sign Of The Crimson Storm (04:43)
07. October 31 - Loanshark (04:06)
08. Alpha Tiger - Flight Of The Warrior (04:07)
09. Stallion - Rock City (03:03)
10. Rocka Rollas - Riot (04:59)
11. Evil United - Altar Of The King (04:46)
12. Night Demon - Road Racin' (03:40)
13. Dexter Ward - Running From The Law (04:29)
14. Crystal Viper feat. Todd Michael Hall - Thundersteel (03:49)

Image

_________________
One more beer and Heavy Metal and I'm just fine!
старовер, куле... слово "блин" - до сих пор через Ъ говорю


Last edited by 32warlord1 on 19 Sep 2016, edited 1 time in total.

Top
 Profile E-mail  
 
 
PostPosted: 12 Sep 2016 
Хиппей (support team)
User avatar
Joined: 30 Jul 2007
Posts: 113139
Lоcаtion: Киев (Kyiv, UA)
Age: 46
Name: Andrey
:thanx:

mirror: iFolder l Narod l M-Cloud


Поначалу, взглянув на картинку. думал - о, или Мановару трибют, или АЦДЦ... :crazy:

_________________


Top
 Profile E-mail  
 
 
PostPosted: 12 Sep 2016 
Partisanen - nicht kapitulieren!!
User avatar
Joined: 25 Dec 2011
Posts: 7020
Lоcаtion: партизанские леса
Age: 46
Name: Владимир
:smile:

_________________
One more beer and Heavy Metal and I'm just fine!
старовер, куле... слово "блин" - до сих пор через Ъ говорю


Top
 Profile E-mail  
 
 
PostPosted: 12 Sep 2016 
Рарник и трушник
User avatar
Joined: 25 Dec 2009
Posts: 8650
Lоcаtion: Москва
Age: 53
Name: Виталий
О!!! :shok: Вот это супер подарочег! Спасибо, Владимир! Да ещё команды-то какие каверят. :thanx:

ЗЫ. А кстати, трибьют то Heavy Load не попадался? И выходил ли вообще? Помню в начале 2000-х ходили слухи, но чёт я потерял нить. :vic:


Top
 Profile  
 
 
PostPosted: 12 Sep 2016 
Персональный статус
Joined: 05 Feb 2011
Posts: 349
Lоcаtion: Russia, Novosibirsk
Age: 44
Name: Андрей
Спасибо :true: Последнее время мало достойных трибьютов. Андеграунд сплошной. Этот - редкое исключение :thanx:


Top
 Profile E-mail  
 
 
PostPosted: 12 Sep 2016 
Partisanen - nicht kapitulieren!!
User avatar
Joined: 25 Dec 2011
Posts: 7020
Lоcаtion: партизанские леса
Age: 46
Name: Владимир
есть лось с ваты, если надо кому...

_________________
One more beer and Heavy Metal and I'm just fine!
старовер, куле... слово "блин" - до сих пор через Ъ говорю


Top
 Profile E-mail  
 
 
PostPosted: 12 Sep 2016 
Хиппей (support team)
User avatar
Joined: 30 Jul 2007
Posts: 113139
Lоcаtion: Киев (Kyiv, UA)
Age: 46
Name: Andrey
Ватный лось заберём тоже :kro:

_________________


Top
 Profile E-mail  
 
 
PostPosted: 12 Sep 2016 
Рарник и трушник
User avatar
Joined: 25 Dec 2009
Posts: 8650
Lоcаtion: Москва
Age: 53
Name: Виталий
32warlord1 wrote:
есть лось с ваты, если надо кому...

Конечно предпочтительней! :thanx:


Top
 Profile  
 
 
PostPosted: 12 Sep 2016 
Power Metal Maniac
User avatar
Joined: 09 Aug 2008
Posts: 6756
Lоcаtion: Москва
Age: 41
Name: Егор
:thanx:

_________________
Long Live Metal!


Top
 Profile  
 
 
PostPosted: 14 Sep 2016 
Partisanen - nicht kapitulieren!!
User avatar
Joined: 25 Dec 2011
Posts: 7020
Lоcаtion: партизанские леса
Age: 46
Name: Владимир
VA 2015 - Thunder And Steel Down Under - A Tribute To Riot
Image

Genre : Hard Rock/Heavy Metal
Country : Germany
Label : Skol Records
Tracks : 14
Playtime : 00:53:28
Size : 407 MB
Codec : FLAC (tracks/log/cue)/lossless

Tracklist :
01. Ferdy Doerngers - Soldier (02:15)
02. Axel Rudi Pell - Warrior (03:42)
03. Attacker - Fire Down Under (02:37)
04. Walpyrgus - Outlaw (03:55)
05. Savage Master - Swords & Tequila (03:10)
06. Angelo Perlepes Mystery - Sign Of The Crimson Storm (04:43)
07. October 31 - Loanshark (04:06)
08. Alpha Tiger - Flight Of The Warrior (04:07)
09. Stallion - Rock City (03:03)
10. Rocka Rollas - Riot (04:59)
11. Evil United - Altar Of The King (04:46)
12. Night Demon - Road Racin' (03:40)
13. Dexter Ward - Running From The Law (04:29)
14. Crystal Viper feat. Todd Michael Hall - Thundersteel (03:49)

EAC log
Code:
Exact Audio Copy V1.0 beta 6 from 9. April 2015

EAC extraction logfile from 23. May 2015, 11:32

Various Artists / Thunder And Steel Down Under - A Tribute To Riot

Used drive  : Optiarc DVD RW AD-7240S   Adapter: 1  ID: 1

Read mode               : Secure
Utilize accurate stream : Yes
Defeat audio cache      : Yes
Make use of C2 pointers : No

Read offset correction                      : 48
Overread into Lead-In and Lead-Out          : No
Fill up missing offset samples with silence : Yes
Delete leading and trailing silent blocks   : No
Null samples used in CRC calculations       : Yes
Used interface                              : Native Win32 interface for Win NT & 2000
Gap handling                                : Appended to previous track

Used output format              : User Defined Encoder
Selected bitrate                : 1024 kBit/s
Quality                         : High
Add ID3 tag                     : No
Command line compressor         : C:\Program Files (x86)\Exact Audio Copy\Flac\flac.exe
Additional command line options : -8 -V -T "ARTIST=%artist%" -T "TITLE=%title%" -T "ALBUM=%albumtitle%" -T "DATE=%year%" -T "TRACKNUMBER=%tracknr%" -T "TOTALTRACKS=%numtracks%" -T "GENRE=%genre%" -T "ALBUMARTIST=%albumartist%" -T "ALBUM ARTIST=%albumartist%" -T "COMMENT=EAC Secure Mode, Test & Copy, AccurateRip, FLAC -8" %source%


TOC of the extracted CD

     Track |   Start  |  Length  | Start sector | End sector
    ---------------------------------------------------------
        1  |  0:00.00 |  2:15.15 |         0    |    10139   
        2  |  2:15.15 |  3:42.54 |     10140    |    26843   
        3  |  5:57.69 |  2:37.45 |     26844    |    38663   
        4  |  8:35.39 |  3:55.00 |     38664    |    56288   
        5  | 12:30.39 |  3:10.59 |     56289    |    70597   
        6  | 15:41.23 |  4:43.31 |     70598    |    91853   
        7  | 20:24.54 |  4:06.09 |     91854    |   110312   
        8  | 24:30.63 |  4:07.32 |    110313    |   128869   
        9  | 28:38.20 |  3:03.38 |    128870    |   142632   
       10  | 31:41.58 |  4:59.27 |    142633    |   165084   
       11  | 36:41.10 |  4:46.11 |    165085    |   186545   
       12  | 41:27.21 |  3:40.49 |    186546    |   203094   
       13  | 45:07.70 |  4:29.65 |    203095    |   223334   
       14  | 49:37.60 |  3:49.58 |    223335    |   240567   


Track  1

     Filename C:\Users\Wyzard\Desktop\New folder\01 - Ferdy Doerngers - Soldier.wav

     Pre-gap length  0:00:02.00

     Peak level 100.0 %
     Extraction speed 2.1 X
     Track quality 100.0 %
     Test CRC 660B37EE
     Copy CRC 660B37EE
     Track not present in AccurateRip database
     Copy OK

Track  2

     Filename C:\Users\Wyzard\Desktop\New folder\02 - Axel Rudi Pell - Warrior.wav

     Peak level 98.8 %
     Extraction speed 2.5 X
     Track quality 100.0 %
     Test CRC 7B20AD7E
     Copy CRC 7B20AD7E
     Track not present in AccurateRip database
     Copy OK

Track  3

     Filename C:\Users\Wyzard\Desktop\New folder\03 - Attacker - Fire Down Under.wav

     Peak level 99.9 %
     Extraction speed 2.5 X
     Track quality 100.0 %
     Test CRC 6168B34E
     Copy CRC 6168B34E
     Track not present in AccurateRip database
     Copy OK

Track  4

     Filename C:\Users\Wyzard\Desktop\New folder\04 - Walpyrgus - Outlaw.wav

     Peak level 99.6 %
     Extraction speed 2.9 X
     Track quality 100.0 %
     Test CRC 2DCDF6A9
     Copy CRC 2DCDF6A9
     Track not present in AccurateRip database
     Copy OK

Track  5

     Filename C:\Users\Wyzard\Desktop\New folder\05 - Savage Master - Swords & Tequila.wav

     Peak level 99.4 %
     Extraction speed 3.0 X
     Track quality 100.0 %
     Test CRC 2E368F2D
     Copy CRC 2E368F2D
     Track not present in AccurateRip database
     Copy OK

Track  6

     Filename C:\Users\Wyzard\Desktop\New folder\06 - Angelo Perlepes Mystery - Sign of the Crimson Storm.wav

     Peak level 97.7 %
     Extraction speed 3.4 X
     Track quality 100.0 %
     Test CRC EECB1DE2
     Copy CRC EECB1DE2
     Track not present in AccurateRip database
     Copy OK

Track  7

     Filename C:\Users\Wyzard\Desktop\New folder\07 - October 31 - Loanshark.wav

     Peak level 96.6 %
     Extraction speed 3.5 X
     Track quality 100.0 %
     Test CRC 2EDCB3D6
     Copy CRC 2EDCB3D6
     Track not present in AccurateRip database
     Copy OK

Track  8

     Filename C:\Users\Wyzard\Desktop\New folder\08 - Alpha Tiger - Flight of the Warrior.wav

     Peak level 97.7 %
     Extraction speed 3.7 X
     Track quality 100.0 %
     Test CRC 8EDF965B
     Copy CRC 8EDF965B
     Track not present in AccurateRip database
     Copy OK

Track  9

     Filename C:\Users\Wyzard\Desktop\New folder\09 - Stallion - Rock City.wav

     Peak level 96.0 %
     Extraction speed 3.7 X
     Track quality 100.0 %
     Test CRC 243E0572
     Copy CRC 243E0572
     Track not present in AccurateRip database
     Copy OK

Track 10

     Filename C:\Users\Wyzard\Desktop\New folder\10 - Rocka Rollas - Riot.wav

     Peak level 99.6 %
     Extraction speed 4.1 X
     Track quality 100.0 %
     Test CRC DF90576E
     Copy CRC DF90576E
     Track not present in AccurateRip database
     Copy OK

Track 11

     Filename C:\Users\Wyzard\Desktop\New folder\11 - Evil United - Altar of the King.wav

     Peak level 100.0 %
     Extraction speed 3.9 X
     Track quality 99.9 %
     Test CRC 6AC1103E
     Copy CRC 6AC1103E
     Track not present in AccurateRip database
     Copy OK

Track 12

     Filename C:\Users\Wyzard\Desktop\New folder\12 - Night Demon - Road Racin'.wav

     Peak level 100.0 %
     Extraction speed 4.3 X
     Track quality 100.0 %
     Test CRC 04EE8E29
     Copy CRC 04EE8E29
     Track not present in AccurateRip database
     Copy OK

Track 13

     Filename C:\Users\Wyzard\Desktop\New folder\13 - Dexter Ward - Running From the Law.wav

     Peak level 99.4 %
     Extraction speed 4.6 X
     Track quality 100.0 %
     Test CRC 7A0729D2
     Copy CRC 7A0729D2
     Track not present in AccurateRip database
     Copy OK

Track 14

     Filename C:\Users\Wyzard\Desktop\New folder\14 - Crystal Viper feat. Todd Michael Hall - Thundersteel.wav

     Peak level 100.0 %
     Extraction speed 4.1 X
     Track quality 99.9 %
     Test CRC DB876F5D
     Copy CRC DB876F5D
     Track not present in AccurateRip database
     Copy OK


None of the tracks are present in the AccurateRip database

No errors occurred

End of status report

---- CUETools DB Plugin V2.1.6

[CTDB TOCID: 3TjLNaCXvPk3iybT.Yfa5u60etk-] disk not present in database
Submit result: 3TjLNaCXvPk3iybT.Yfa5u60etk- has been uploaded


==== Log checksum E312AA6E7B9DB3B04D9CCCD614AEC00F6C89A5132F851FC630E04DD66876C8D4 ====


Image

_________________
One more beer and Heavy Metal and I'm just fine!
старовер, куле... слово "блин" - до сих пор через Ъ говорю


Top
 Profile E-mail  
 
 
PostPosted: 14 Sep 2016 
Хиппей (support team)
User avatar
Joined: 30 Jul 2007
Posts: 113139
Lоcаtion: Киев (Kyiv, UA)
Age: 46
Name: Andrey
:thanx:

mirror: iFolder l Narod l M-Cloud

_________________


Top
 Profile E-mail  
 
 
PostPosted: 14 Sep 2016 
А может смените мне статус?..
User avatar
Joined: 22 Nov 2008
Posts: 970
Lоcаtion: Schelcovo,Russia
Age: 47
Name: Сергей
Вроде был уже этот трибьютник?


Top
 Profile  
 
 
PostPosted: 14 Sep 2016 
Partisanen - nicht kapitulieren!!
User avatar
Joined: 25 Dec 2011
Posts: 7020
Lоcаtion: партизанские леса
Age: 46
Name: Владимир
мпЗ

_________________
One more beer and Heavy Metal and I'm just fine!
старовер, куле... слово "блин" - до сих пор через Ъ говорю


Top
 Profile E-mail  
 
 
PostPosted: 14 Sep 2016 
Хиппей (support team)
User avatar
Joined: 30 Jul 2007
Posts: 113139
Lоcаtion: Киев (Kyiv, UA)
Age: 46
Name: Andrey
Пойду посплю.
Позже слеплю. Не путайтесь.

_________________


Top
 Profile E-mail  
 
 
PostPosted: 14 Sep 2016 
А может смените мне статус?..
User avatar
Joined: 22 Nov 2008
Posts: 970
Lоcаtion: Schelcovo,Russia
Age: 47
Name: Сергей
понятно! :thanx:


Top
 Profile  
 
 
PostPosted: 14 Sep 2016 
Рарник и трушник
User avatar
Joined: 25 Dec 2009
Posts: 8650
Lоcаtion: Москва
Age: 53
Name: Виталий
Спасибо за лося, Володь! :thanx:


Top
 Profile  
 
 
PostPosted: 16 Sep 2016 
Хиппей (support team)
User avatar
Joined: 30 Jul 2007
Posts: 113139
Lоcаtion: Киев (Kyiv, UA)
Age: 46
Name: Andrey
Темы объединены :pardon:

_________________


Top
 Profile E-mail  
 
 
PostPosted: 16 Sep 2016 
Partisanen - nicht kapitulieren!!
User avatar
Joined: 25 Dec 2011
Posts: 7020
Lоcаtion: партизанские леса
Age: 46
Name: Владимир
дык и Anvil тогда тожэ нада :scratch:

_________________
One more beer and Heavy Metal and I'm just fine!
старовер, куле... слово "блин" - до сих пор через Ъ говорю


Top
 Profile E-mail  
 
 
PostPosted: 16 Sep 2016 
Хиппей (support team)
User avatar
Joined: 30 Jul 2007
Posts: 113139
Lоcаtion: Киев (Kyiv, UA)
Age: 46
Name: Andrey
Ну он в очереди.
Пока я и этот ещё не слушал :pardon:

_________________


Top
 Profile E-mail  
 
 
PostPosted: 16 Sep 2016 
Хиппей (support team)
User avatar
Joined: 30 Jul 2007
Posts: 113139
Lоcаtion: Киев (Kyiv, UA)
Age: 46
Name: Andrey
А вообще, желательно сразу лося, хоть и ватного, постить. Если он есть. Мп3 то чаще всего как раз из лося и делают.
Ну это так, просьба-пожелание, не более :kro:

_________________


Top
 Profile E-mail  
 
Display posts from previous:  Sort by  
Post new topic Reply to topic  [ 38 posts ]  Go to page 1, 2  Next

All times are UTC + 3 hours


Who is online

Users browsing this forum: No registered users and 1 guest


You cannot post new topics in this forum
You cannot reply to topics in this forum
You cannot edit your posts in this forum
You cannot delete your posts in this forum
You cannot post attachments in this forum

Search for:
Яндекс.Метрика
cron
Powered by phpBB © 2000, 2002, 2005, 2007 phpBB Group