\m/ 80's metal \m/

Информационно-аналитический форум "80 см пыли" (In Search We Trust) "У нас никто никуда не спешит"
Me For You - http://me-4u.com
It is currently 26 Jun 2019

All times are UTC + 3 hours

Spoiler
Chat - temporary registration for foreign users (please leave your application here)







Post new topic Reply to topic  [ 17 posts ] 
Author Message
 
PostPosted: 12 Sep 2016 
Partisanen - nicht kapitulieren!!
User avatar
Joined: 25 Dec 2011
Posts: 7020
Lоcаtion: партизанские леса
Age: 46
Name: Владимир
VA 2013 - Strong As Steel: A Tribute To Anvil
Image

Genre : Heavy Metal
Country : Various
Label : Skol Records
Tracks : 13
Playtime : 00:54:23
Size : 128 MB
Codec : MPEG 1 Layer III/320 kbps

Tracklist :
01. Crystal Viper - Metal On Metal (03:55)
02. Winged Assassins - Caym (03:47)
03. Sinister Realm - Forged In Fire (04:45)
04. Stormzone - Heat Sink (03:51)
05. Destructor - Bedroom Game (03:53)
06. Skelator - Cut Loose (03:12)
07. Breaker - Concrete Jungle (05:05)
08. Savage Blade - School Love (03:17)
09. Convixion - Hard Times, Fast Ladies (03:40)
10. Dexter Ward - Free As The Wind (05:42)
11. Satanica - 666 (04:44)
12. Maverick - Ooh Baby (03:23)
13. Iron Kobra - Mothra (05:02)

Image

_________________
One more beer and Heavy Metal and I'm just fine!
старовер, куле... слово "блин" - до сих пор через Ъ говорю


Last edited by 32warlord1 on 12 Sep 2016, edited 1 time in total.

Top
 Profile E-mail  
 
 
PostPosted: 12 Sep 2016 
Partisanen - nicht kapitulieren!!
User avatar
Joined: 25 Dec 2011
Posts: 7020
Lоcаtion: партизанские леса
Age: 46
Name: Владимир
упс, косячок... был... 3ий трек - перепутаны местами название с исполнителем :oops:
перезалил

_________________
One more beer and Heavy Metal and I'm just fine!
старовер, куле... слово "блин" - до сих пор через Ъ говорю


Top
 Profile E-mail  
 
 
PostPosted: 12 Sep 2016 
Partisanen - nicht kapitulieren!!
User avatar
Joined: 25 Dec 2011
Posts: 7020
Lоcаtion: партизанские леса
Age: 46
Name: Владимир
упс-2
очепятка в исполнителе 9 трека - CoNvixion

перезалил ещё раз :oops:

_________________
One more beer and Heavy Metal and I'm just fine!
старовер, куле... слово "блин" - до сих пор через Ъ говорю


Top
 Profile E-mail  
 
 
PostPosted: 12 Sep 2016 
Хиппей (support team)
User avatar
Joined: 30 Jul 2007
Posts: 113133
Lоcаtion: Киев (Kyiv, UA)
Age: 46
Name: Andrey
:thanx:

mirror: iFolder l Narod l M-Cloud


Вовремя и припоздал :kro:

_________________


Top
 Profile E-mail  
 
 
PostPosted: 12 Sep 2016 
Partisanen - nicht kapitulieren!!
User avatar
Joined: 25 Dec 2011
Posts: 7020
Lоcаtion: партизанские леса
Age: 46
Name: Владимир
чо? хто куда припоздал вовремя? :shok:

_________________
One more beer and Heavy Metal and I'm just fine!
старовер, куле... слово "блин" - до сих пор через Ъ говорю


Top
 Profile E-mail  
 
 
PostPosted: 14 Sep 2016 
Хиппей (support team)
User avatar
Joined: 30 Jul 2007
Posts: 113133
Lоcаtion: Киев (Kyiv, UA)
Age: 46
Name: Andrey
Я вовремя припоздал. А так бы два раза перекачивал.

Слушаю сборник. Тоже хорош. Не прусь, но просто наслаждаюсь.
Естественно, большинство композиций данной группы слышу впервые :meloman:

_________________


Top
 Profile E-mail  
 
 
PostPosted: 14 Sep 2016 
Partisanen - nicht kapitulieren!!
User avatar
Joined: 25 Dec 2011
Posts: 7020
Lоcаtion: партизанские леса
Age: 46
Name: Владимир
аааа, отоночо... :smile:
ну и да - тоже лось есть :lloo:

_________________
One more beer and Heavy Metal and I'm just fine!
старовер, куле... слово "блин" - до сих пор через Ъ говорю


Top
 Profile E-mail  
 
 
PostPosted: 14 Sep 2016 
Хиппей (support team)
User avatar
Joined: 30 Jul 2007
Posts: 113133
Lоcаtion: Киев (Kyiv, UA)
Age: 46
Name: Andrey
32warlord1 wrote:
ну и да - тоже лось есть :lloo:

Блин, Володь так ты сразу, если что :thanx:

_________________


Top
 Profile E-mail  
 
 
PostPosted: 14 Sep 2016 
Partisanen - nicht kapitulieren!!
User avatar
Joined: 25 Dec 2011
Posts: 7020
Lоcаtion: партизанские леса
Age: 46
Name: Владимир
ога, чуть попозжей обоих оформлю

_________________
One more beer and Heavy Metal and I'm just fine!
старовер, куле... слово "блин" - до сих пор через Ъ говорю


Top
 Profile E-mail  
 
 
PostPosted: 14 Sep 2016 
Partisanen - nicht kapitulieren!!
User avatar
Joined: 25 Dec 2011
Posts: 7020
Lоcаtion: партизанские леса
Age: 46
Name: Владимир
VA 2013 - Strong As Steel: A Tribute To Anvil
Image

Genre : Heavy Metal
Country : Various
Label : Skol Records
Tracks : 13
Playtime : 00:54:23
Size : 391 MB
Codec : FLAC (tracks/log/cue)/lossless

Tracklist :
01. Crystal Viper - Metal On Metal (03:55)
02. Winged Assassins - Caym (03:47)
03. Sinister Realm - Forged In Fire (04:45)
04. Stormzone - Heat Sink (03:51)
05. Destructor - Bedroom Game (03:53)
06. Skelator - Cut Loose (03:12)
07. Breaker - Concrete Jungle (05:05)
08. Savage Blade - School Love (03:17)
09. Convixion - Hard Times, Fast Ladies (03:40)
10. Dexter Ward - Free As The Wind (05:42)
11. Satanica - 666 (04:44)
12. Maverick - Ooh Baby (03:23)
13. Iron Kobra - Mothra (05:02)

EAC log
Code:
Exact Audio Copy V1.0 beta 3 from 29. August 2011

EAC extraction logfile from 7. December 2013, 5:45

Various Artists / Strong as Steel: A Tribute to Anvil

Used drive  : PIONEER DVD-RW  DVR-116D   Adapter: 0  ID: 1

Read mode               : Secure
Utilize accurate stream : Yes
Defeat audio cache      : Yes
Make use of C2 pointers : No

Read offset correction                      : 96
Overread into Lead-In and Lead-Out          : No
Fill up missing offset samples with silence : Yes
Delete leading and trailing silent blocks   : No
Null samples used in CRC calculations       : Yes
Used interface                              : Native Win32 interface for Win NT & 2000
Gap handling                                : Appended to previous track

Used output format              : User Defined Encoder
Selected bitrate                : 1024 kBit/s
Quality                         : High
Add ID3 tag                     : Yes
Command line compressor         : C:\Program Files (x86)\Exact Audio Copy\Flac\flac.exe
Additional command line options : -8 -V -T "ARTIST=%artist%" -T "TITLE=%title%" -T "ALBUM=%albumtitle%" -T "DATE=%year%" -T "TRACKNUMBER=%tracknr%" -T "GENRE=%genre%" -T "PERFORMER=%albuminterpret%" -T "COMPOSER=%composer%" %haslyrics%--tag-from-file=LYRICS="%lyricsfile%"%haslyrics% -T "ALBUMARTIST=%albumartist%" -T "DISCNUMBER=%cdnumber%" -T "TOTALDISCS=%totalcds%" -T "TOTALTRACKS=%numtracks%" -T "COMMENT=%comment%" %source% -o %dest%


TOC of the extracted CD

     Track |   Start  |  Length  | Start sector | End sector
    ---------------------------------------------------------
        1  |  0:00.00 |  3:55.45 |         0    |    17669   
        2  |  3:55.45 |  3:47.25 |     17670    |    34719   
        3  |  7:42.70 |  4:45.46 |     34720    |    56140   
        4  | 12:28.41 |  3:51.11 |     56141    |    73476   
        5  | 16:19.52 |  3:52.74 |     73477    |    90950   
        6  | 20:12.51 |  3:12.43 |     90951    |   105393   
        7  | 23:25.19 |  5:05.52 |    105394    |   128320   
        8  | 28:30.71 |  3:17.28 |    128321    |   143123   
        9  | 31:48.24 |  3:40.61 |    143124    |   159684   
       10  | 35:29.10 |  5:42.32 |    159685    |   185366   
       11  | 41:11.42 |  4:44.52 |    185367    |   206718   
       12  | 45:56.19 |  3:23.56 |    206719    |   221999   
       13  | 49:20.00 |  5:02.25 |    222000    |   244674   


Track  1

     Filename C:\EACrips\Various Artists - Strong as Steel A Tribute to Anvil\01 - Crystal Viper - Metal on Metal.wav

     Pre-gap length  0:00:02.00

     Peak level 100.0 %
     Extraction speed 4.5 X
     Track quality 100.0 %
     Test CRC 9B0EE523
     Copy CRC 9B0EE523
     Track not present in AccurateRip database
     Copy OK

Track  2

     Filename C:\EACrips\Various Artists - Strong as Steel A Tribute to Anvil\02 - Winged Assassins - Caym.wav

     Peak level 100.0 %
     Extraction speed 5.0 X
     Track quality 100.0 %
     Test CRC B18A7AF4
     Copy CRC B18A7AF4
     Track not present in AccurateRip database
     Copy OK

Track  3

     Filename C:\EACrips\Various Artists - Strong as Steel A Tribute to Anvil\03 - Forged in Fire - Sinister Realm.wav

     Peak level 98.8 %
     Extraction speed 5.6 X
     Track quality 100.0 %
     Test CRC BA9DC52B
     Copy CRC BA9DC52B
     Track not present in AccurateRip database
     Copy OK

Track  4

     Filename C:\EACrips\Various Artists - Strong as Steel A Tribute to Anvil\04 - Stormzone - Heat Sink.wav

     Peak level 100.0 %
     Extraction speed 5.8 X
     Track quality 100.0 %
     Test CRC CB325A3A
     Copy CRC CB325A3A
     Track not present in AccurateRip database
     Copy OK

Track  5

     Filename C:\EACrips\Various Artists - Strong as Steel A Tribute to Anvil\05 - Destructor - Bedroom Game.wav

     Peak level 99.9 %
     Extraction speed 6.1 X
     Track quality 100.0 %
     Test CRC CDE8316A
     Copy CRC CDE8316A
     Track not present in AccurateRip database
     Copy OK

Track  6

     Filename C:\EACrips\Various Artists - Strong as Steel A Tribute to Anvil\06 - Skelator - Cut Loose.wav

     Peak level 97.2 %
     Extraction speed 5.4 X
     Track quality 99.9 %
     Test CRC 81304293
     Copy CRC 81304293
     Track not present in AccurateRip database
     Copy OK

Track  7

     Filename C:\EACrips\Various Artists - Strong as Steel A Tribute to Anvil\07 - Breaker - Concrete Jungle.wav

     Peak level 100.0 %
     Extraction speed 6.9 X
     Track quality 100.0 %
     Test CRC 6670AF81
     Copy CRC 6670AF81
     Track not present in AccurateRip database
     Copy OK

Track  8

     Filename C:\EACrips\Various Artists - Strong as Steel A Tribute to Anvil\08 - Savage Blade - School Love.wav

     Peak level 100.0 %
     Extraction speed 6.8 X
     Track quality 100.0 %
     Test CRC 9FD45DD3
     Copy CRC 9FD45DD3
     Track not present in AccurateRip database
     Copy OK

Track  9

     Filename C:\EACrips\Various Artists - Strong as Steel A Tribute to Anvil\09 - Covixion - Hard Times - Fast Ladies.wav

     Peak level 97.7 %
     Extraction speed 7.1 X
     Track quality 100.0 %
     Test CRC FC833571
     Copy CRC FC833571
     Track not present in AccurateRip database
     Copy OK

Track 10

     Filename C:\EACrips\Various Artists - Strong as Steel A Tribute to Anvil\10 - Dexter Ward - Free as the Wind.wav

     Peak level 97.7 %
     Extraction speed 7.7 X
     Track quality 100.0 %
     Test CRC 418468FF
     Copy CRC 418468FF
     Track not present in AccurateRip database
     Copy OK

Track 11

     Filename C:\EACrips\Various Artists - Strong as Steel A Tribute to Anvil\11 - Satanica - 666.wav

     Peak level 100.0 %
     Extraction speed 8.0 X
     Track quality 100.0 %
     Test CRC D3C59A04
     Copy CRC D3C59A04
     Track not present in AccurateRip database
     Copy OK

Track 12

     Filename C:\EACrips\Various Artists - Strong as Steel A Tribute to Anvil\12 - Maverick - Ooh Baby.wav

     Peak level 98.5 %
     Extraction speed 7.8 X
     Track quality 100.0 %
     Test CRC 2968733F
     Copy CRC 2968733F
     Track not present in AccurateRip database
     Copy OK

Track 13

     Filename C:\EACrips\Various Artists - Strong as Steel A Tribute to Anvil\13 - Iron Kobra - Mothra.wav

     Peak level 97.6 %
     Extraction speed 8.5 X
     Track quality 100.0 %
     Test CRC 52C38DE0
     Copy CRC 52C38DE0
     Track not present in AccurateRip database
     Copy OK


None of the tracks are present in the AccurateRip database

No errors occurred

End of status report

---- CUETools DB Plugin V2.1.3

[CTDB TOCID: .DtAuTjuNQiI_N2tnUFVoAUtmA0-] found, Submit result: already submitted
[d44aeeaf] (1/1) Accurately ripped


==== Log checksum 16B4066BE4C2C2C5C6806631ED0CEC3F187D6165A4185FD0138E194481B4E71A ====


Image

_________________
One more beer and Heavy Metal and I'm just fine!
старовер, куле... слово "блин" - до сих пор через Ъ говорю


Top
 Profile E-mail  
 
 
PostPosted: 14 Sep 2016 
Partisanen - nicht kapitulieren!!
User avatar
Joined: 25 Dec 2011
Posts: 7020
Lоcаtion: партизанские леса
Age: 46
Name: Владимир
в cue и в названиях файлов были ошибки - исправлено

_________________
One more beer and Heavy Metal and I'm just fine!
старовер, куле... слово "блин" - до сих пор через Ъ говорю


Top
 Profile E-mail  
 
 
PostPosted: 14 Sep 2016 
Хиппей (support team)
User avatar
Joined: 30 Jul 2007
Posts: 113133
Lоcаtion: Киев (Kyiv, UA)
Age: 46
Name: Andrey
:thanx:

mirror: iFolder l Narod l M-Cloud

Володь, совмещу я темы всё же :lloo:

_________________


Top
 Profile E-mail  
 
 
PostPosted: 14 Sep 2016 
Partisanen - nicht kapitulieren!!
User avatar
Joined: 25 Dec 2011
Posts: 7020
Lоcаtion: партизанские леса
Age: 46
Name: Владимир
да пофег... а что это изменит? :scratch:

_________________
One more beer and Heavy Metal and I'm just fine!
старовер, куле... слово "блин" - до сих пор через Ъ говорю


Top
 Profile E-mail  
 
 
PostPosted: 14 Sep 2016 
Хиппей (support team)
User avatar
Joined: 30 Jul 2007
Posts: 113133
Lоcаtion: Киев (Kyiv, UA)
Age: 46
Name: Andrey
Будет одна тема по одному сборнику, а не две :pardon:

_________________


Top
 Profile E-mail  
 
 
PostPosted: 14 Sep 2016 
Partisanen - nicht kapitulieren!!
User avatar
Joined: 25 Dec 2011
Posts: 7020
Lоcаtion: партизанские леса
Age: 46
Name: Владимир
:vic:
тебе видней

_________________
One more beer and Heavy Metal and I'm just fine!
старовер, куле... слово "блин" - до сих пор через Ъ говорю


Top
 Profile E-mail  
 
 
PostPosted: 14 Sep 2016 
Хиппей (support team)
User avatar
Joined: 30 Jul 2007
Posts: 113133
Lоcаtion: Киев (Kyiv, UA)
Age: 46
Name: Andrey
Ну как это виднее? Удобнее так.
Не хочется нудеть, но если уж есть альбом в лосях, то лучше сразу его и в лосях заливать. Мп3 то нарезать с него не проблёма.
Логично ж?

Объединяю темы...

_________________


Top
 Profile E-mail  
 
 
PostPosted: 24 Sep 2016 
Хиппей (support team)
User avatar
Joined: 30 Jul 2007
Posts: 113133
Lоcаtion: Киев (Kyiv, UA)
Age: 46
Name: Andrey
Хороший сборник.
Очень нравится, что разнообразный.
Кабы меня спросили, на какую группу больше всего похожи эти песни?
Не мешкая в штанах долго, сразу бы ответил - Iron Maiden :kro:

Хотел сначала выделить лучшие каверы, но затем передумал. Время отнимает. Да и отвлекает слушать в ванной музыку и тут же делать пометки на кафеле.

Всем спасибо за сборник :thanx:

_________________


Top
 Profile E-mail  
 
Display posts from previous:  Sort by  
Post new topic Reply to topic  [ 17 posts ] 

All times are UTC + 3 hours


Who is online

Users browsing this forum: No registered users and 1 guest


You cannot post new topics in this forum
You cannot reply to topics in this forum
You cannot edit your posts in this forum
You cannot delete your posts in this forum
You cannot post attachments in this forum

Search for:
Яндекс.Метрика
Powered by phpBB © 2000, 2002, 2005, 2007 phpBB Group