\m/ 80's metal \m/

Информационно-аналитический форум "80 см пыли" (In Search We Trust) "У нас никто никуда не спешит"
Me For You - http://me-4u.com
It is currently 17 Sep 2019

All times are UTC + 3 hours

Spoiler
Chat - temporary registration for foreign users (please leave your application here)







Post new topic Reply to topic  [ 5 posts ] 
Author Message
 
PostPosted: 05 Jul 2015 
Работнечег
User avatar
Joined: 28 Aug 2007
Posts: 5993
Lоcаtion: г. Москва
Age: 30
Name: Дима
Image

Band: Various Artists
Genre: Thrash Metal
Country: Colombia
Format: Flac + Log + Cue + Covers
Size: 262 Mb

Tracklist:
Side A - Knell
1. Knell - Intro 01:23 (instrumental)
2. Knell - Childrens of Bleeds 03:24
3. Knell - Metal Adicts 03:31
4. Knell - Thrasher Warriors 04:23
5. Knell - Impure Acts 03:10
6. Knell - Night of Alcohol and Metal 04:39
7. Knell - Bloody Evil 04:04
Side B - Antemortem
8. AnteMortem - The Ring of Fire 01:48 (instrumental)
9. AnteMortem - Aweking of the Maniac 03:52
10. AnteMortem - They Shall Pay with Blood 03:31
11. AnteMortem - Metal Massacre 02:52
12. AnteMortem - Ritual of Sacrifice 04:07
13. AnteMortem - Through Death 04:42
14. AnteMortem - Demon Exterminator 02:25 (instrumental)

LOG
Exact Audio Copy V0.99 prebeta 5 from 4. May 2009

EAC extraction logfile from 16. June 2015, 21:15

Knell/AntiMortem / Galeras Thrash Assault (Split)

Used drive : PIONEER DVD-RW DVR-221 Adapter: 2 ID: 1

Read mode : Secure
Utilize accurate stream : Yes
Defeat audio cache : Yes
Make use of C2 pointers : No

Read offset correction : 6
Overread into Lead-In and Lead-Out : No
Fill up missing offset samples with silence : Yes
Delete leading and trailing silent blocks : No
Null samples used in CRC calculations : Yes
Used interface : Native Win32 interface for Win NT & 2000

Used output format : User Defined Encoder
Selected bitrate : 32 kBit/s
Quality : High
Add ID3 tag : No
Command line compressor : C:\Program Files\Exact Audio Copy\Flac\flac.exe
Additional command line options : -6 -V %s


TOC of the extracted CD

Track | Start | Length | Start sector | End sector
---------------------------------------------------------
1 | 0:00.00 | 1:23.21 | 0 | 6245
2 | 1:23.21 | 3:24.07 | 6246 | 21552
3 | 4:47.28 | 3:31.28 | 21553 | 37405
4 | 8:18.56 | 4:23.00 | 37406 | 57130
5 | 12:41.56 | 3:09.41 | 57131 | 71346
6 | 15:51.22 | 4:38.66 | 71347 | 92262
7 | 20:30.13 | 4:04.20 | 92263 | 110582
8 | 24:34.33 | 5:39.54 | 110583 | 136061
9 | 30:14.12 | 3:31.26 | 136062 | 151912
10 | 33:45.38 | 2:52.03 | 151913 | 164815
11 | 36:37.41 | 4:07.32 | 164816 | 183372
12 | 40:44.73 | 4:42.09 | 183373 | 204531
13 | 45:27.07 | 2:25.31 | 204532 | 215437


Range status and errors

Selected range

Filename D:\Музыка\Lossless\Knell & AntiMortem - Galeras Thrash Assault (Split)(2006)\Knell AntiMortem - Galeras Thrash Assault (Split).wav

Peak level 100.0 %
Range quality 100.0 %
Copy CRC 61311F6F
Copy OK

No errors occurred


AccurateRip summary

Track 1 not present in database
Track 2 not present in database
Track 3 not present in database
Track 4 not present in database
Track 5 not present in database
Track 6 not present in database
Track 7 not present in database
Track 8 not present in database
Track 9 not present in database
Track 10 not present in database
Track 11 not present in database
Track 12 not present in database
Track 13 not present in database

None of the tracks are present in the AccurateRip database

End of status report

CUE
REM GENRE "Thrash Metal"
REM DATE 2006
REM DISCID B60B380D
REM COMMENT "ExactAudioCopy v0.99pb5"
PERFORMER "Knell/AntiMortem"
TITLE "Galeras Thrash Assault (Split)"
FILE "Knell AntiMortem - Galeras Thrash Assault (Split).flac" WAVE
TRACK 01 AUDIO
TITLE "Knell - Intro"
PERFORMER "Knell/AntiMortem"
FLAGS DCP
INDEX 01 00:00:00
TRACK 02 AUDIO
TITLE "Knell - Childrens Of Bleeds"
PERFORMER "Knell/AntiMortem"
FLAGS DCP
INDEX 00 01:21:21
INDEX 01 01:23:21
TRACK 03 AUDIO
TITLE "Knell - Metal Addicts"
PERFORMER "Knell/AntiMortem"
FLAGS DCP
INDEX 00 04:45:28
INDEX 01 04:47:28
TRACK 04 AUDIO
TITLE "Knell - Thrasher Warriors"
PERFORMER "Knell/AntiMortem"
FLAGS DCP
INDEX 00 08:16:56
INDEX 01 08:18:56
TRACK 05 AUDIO
TITLE "Knell - Impure Acts"
PERFORMER "Knell/AntiMortem"
FLAGS DCP
INDEX 00 12:39:56
INDEX 01 12:41:56
TRACK 06 AUDIO
TITLE "Knell - Night Of Alcohol And Metal"
PERFORMER "Knell/AntiMortem"
FLAGS DCP
INDEX 00 15:49:22
INDEX 01 15:51:22
TRACK 07 AUDIO
TITLE "Knell - Bloody Evil"
PERFORMER "Knell/AntiMortem"
FLAGS DCP
INDEX 00 20:28:13
INDEX 01 20:30:13
TRACK 08 AUDIO
TITLE "AnteMortem - The Ring Of Fire/Awakening Of The Maniac"
PERFORMER "Knell/AntiMortem"
FLAGS DCP
INDEX 00 24:32:33
INDEX 01 24:34:33
TRACK 09 AUDIO
TITLE "AnteMortem - They Shall Pay With Blood"
PERFORMER "Knell/AntiMortem"
FLAGS DCP
INDEX 00 30:12:12
INDEX 01 30:14:12
TRACK 10 AUDIO
TITLE "AnteMortem - Metal Massacre"
PERFORMER "Knell/AntiMortem"
FLAGS DCP
INDEX 00 33:43:38
INDEX 01 33:45:38
TRACK 11 AUDIO
TITLE "AnteMortem - Ritual Of Sacrifice"
PERFORMER "Knell/AntiMortem"
FLAGS DCP
INDEX 00 36:35:41
INDEX 01 36:37:41
TRACK 12 AUDIO
TITLE "AnteMortem - Through Death"
PERFORMER "Knell/AntiMortem"
FLAGS DCP
INDEX 00 40:42:73
INDEX 01 40:44:73
TRACK 13 AUDIO
TITLE "AnteMortem - Demon Exterminator (Instrumental)"
PERFORMER "Knell/AntiMortem"
FLAGS DCP
INDEX 00 45:25:07
INDEX 01 45:27:07


FLAC




Как часто бывает у латиносов, при довольно хорошей музыке, вокал мне совершенно не катит :(


Top
 Profile E-mail  
 
 
PostPosted: 06 Jul 2015 
Генеральный thrasher
User avatar
Joined: 03 Oct 2008
Posts: 3730
Lоcаtion: Ханты-Мансийский АО
Age: 44
Name: Сергей
А я заберу для знакомства.Спасибо,Дим!


Top
 Profile  
 
 
PostPosted: 07 Jul 2015 
Хиппей (support team)
User avatar
Joined: 30 Jul 2007
Posts: 114364
Lоcаtion: Киев (Kyiv, UA)
Age: 46
Name: Andrey
:thanx:

mirrror: iFolder l Narod l M-Cloud

_________________


Top
 Profile E-mail  
 
 
PostPosted: 07 Jul 2015 
ТрэшЭрос
User avatar
Joined: 18 Jul 2011
Posts: 2304
Lоcаtion: Гулькевичи
Age: 44
Name: Александр
:thanx: :true:

_________________
Thrash no trash!!!


Top
 Profile E-mail  
 
 
PostPosted: 07 Jul 2015 
Хиппей (support team)
User avatar
Joined: 30 Jul 2007
Posts: 114364
Lоcаtion: Киев (Kyiv, UA)
Age: 46
Name: Andrey
Нормальный такой хардкоровый вокал - орёт красиво, сипит, надрывается. Всё под стать андерграундной музыке :pardon:

_________________


Top
 Profile E-mail  
 
Display posts from previous:  Sort by  
Post new topic Reply to topic  [ 5 posts ] 

All times are UTC + 3 hours


Who is online

Users browsing this forum: No registered users and 2 guests


You cannot post new topics in this forum
You cannot reply to topics in this forum
You cannot edit your posts in this forum
You cannot delete your posts in this forum
You cannot post attachments in this forum

Search for:
Яндекс.Метрика
Powered by phpBB © 2000, 2002, 2005, 2007 phpBB Group