\m/ 80's metal \m/

Информационно-аналитический форум "80 см пыли" (In Search We Trust) "У нас никто никуда не спешит"
Me For You - http://me-4u.com
It is currently 17 Sep 2019

All times are UTC + 3 hours

Spoiler
Chat - temporary registration for foreign users (please leave your application here)







Post new topic Reply to topic  [ 23 posts ]  Go to page 1, 2  Next
Author Message
 
PostPosted: 07 Oct 2012 
А может смените мне статус?..
User avatar
Joined: 22 Nov 2008
Posts: 972
Lоcаtion: Schelcovo,Russia
Age: 47
Name: Сергей
Image
VA - On The Edge Of Death (1990)

Laserlight - 15 216

Tracks:
01.CROSSHEAD - Danger
02.DEATH SQUAD - F... Like An Animal
03.KILLER - Shockwaves ~ Scarecrow
04.KILLER - In The Name Of The Law
05.CRYSTAL PRIDE - Thousand Nights
06.CRYSTAL PRIDE - Flight Of Heart
07.LAZY - Out Of Sight
08.LAZY - Rock On
09.LAZY - Strange Woman
10.SHERE KHAN - Stroke Of Love
11.SHERE KHAN - Quite Enough For Love
12.SHERE KHAN - The Crowd Is Getting Hungry
13.LYNX - Nightwalker
14.LYNX - Don't Fool Me
15.TORRENT - Lost In The Army

Lossless
Mp3

"log"
Отчёт EAC об извлечении, выполненном 6. октября 2012, 22:23 для диска:
Various / On The Edge Of Death

Дисковод: HL-DT-STDVDRAM GT32N Adapter: 0 ID: 1
Режим чтения: Скоростной
Коррекция смещения при чтении: 0
Способность читать области Lead-in и Lead-out : Нет

Выходной формат: Внутренние WAV-операции
44.100 Гц; 16 бит; стерео

Другие параметры:
Заполнение пропущенных сэмплов тишиной : Да
Удаление блоков с тишиной в начале и конце : Нет
Установленный внешний ASPI-интерфейс


Характеристики диапазона извлечения и сообщения об ошибках
Выбранный диапазон
Имя файла C:\Users\Сергей\Music\V.A. - On The Edge Of Death (1990)\Various - On The Edge Of Death.wav

Пиковый уровень 100.0 %
CRC 8FCDF8CF
Копирование... OK

Ошибок не произошло

Конец отчёта

"cue"
REM GENRE "Hard Rock"
REM DATE 1990
REM DISCID C60DBB0F
REM COMMENT "ExactAudioCopy v0.95b4"
PERFORMER "Various"
TITLE "On The Edge Of Death"
FILE "Various - On The Edge Of Death.wav" WAVE
TRACK 01 AUDIO
TITLE "CROSSHEAD - Danger"
PERFORMER "CROSSHEAD - Danger"
INDEX 01 00:00:00
TRACK 02 AUDIO
TITLE " DEATH SQUAD - F... Like An Animal"
PERFORMER " DEATH SQUAD - F... Like An Animal"
INDEX 00 04:06:45
INDEX 01 04:08:00
TRACK 03 AUDIO
TITLE " KILLER - Shockwaves ~ Scarecrow "
PERFORMER " KILLER - Shockwaves ~ Scarecrow "
INDEX 00 08:32:40
INDEX 01 08:34:00
TRACK 04 AUDIO
TITLE "KILLER - In The Name Of The Law"
PERFORMER "KILLER - In The Name Of The Law"
INDEX 00 12:44:68
INDEX 01 12:46:00
TRACK 05 AUDIO
TITLE "CRYSTAL PRIDE - Thousand Nights"
PERFORMER "CRYSTAL PRIDE - Thousand Nights"
INDEX 01 16:03:00
TRACK 06 AUDIO
TITLE "CRYSTAL PRIDE - Flight Of Heart"
PERFORMER "CRYSTAL PRIDE - Flight Of Heart"
INDEX 00 19:42:68
INDEX 01 19:44:00
TRACK 07 AUDIO
TITLE "LAZY - Out Of Sight"
PERFORMER "LAZY - Out Of Sight"
INDEX 01 23:28:38
TRACK 08 AUDIO
TITLE "LAZY - Rock On "
PERFORMER "LAZY - Rock On "
INDEX 00 27:38:58
INDEX 01 27:40:00
TRACK 09 AUDIO
TITLE "LAZY - Strange Woman"
PERFORMER "LAZY - Strange Woman"
INDEX 00 31:28:59
INDEX 01 31:30:00
TRACK 10 AUDIO
TITLE "SHERE KHAN - Stroke Of Love"
PERFORMER "SHERE KHAN - Stroke Of Love"
INDEX 01 35:07:00
TRACK 11 AUDIO
TITLE " SHERE KHAN - Quite Enough For Love "
PERFORMER " SHERE KHAN - Quite Enough For Love "
INDEX 00 39:10:25
INDEX 01 39:11:38
TRACK 12 AUDIO
TITLE "SHERE KHAN - The Crowd Is Getting Hungry"
PERFORMER "SHERE KHAN - The Crowd Is Getting Hungry"
INDEX 00 42:48:70
INDEX 01 42:50:00
TRACK 13 AUDIO
TITLE "LYNX - Nightwalker"
PERFORMER "LYNX - Nightwalker"
INDEX 01 46:44:00
TRACK 14 AUDIO
TITLE "LYNX - Don't Fool Me"
PERFORMER "LYNX - Don't Fool Me"
INDEX 01 50:45:00
TRACK 15 AUDIO
TITLE "TORRENT - Lost In The Army"
PERFORMER "TORRENT - Lost In The Army"
INDEX 01 55:09:00

Сканы есть.


Top
 Profile  
 
 
PostPosted: 07 Oct 2012 
***


Last edited by Вася_металлист_2012 on 14 Dec 2012, edited 1 time in total.

Top
  
 
 
PostPosted: 07 Oct 2012 
хард н хэвщик (support team)
User avatar
Joined: 02 Jun 2008
Posts: 16881
Lоcаtion: Н.Новгород
Age: 32
Name: Артем
спасибо! любопытно услышать что играют Торрент :true:


Top
 Profile  
 
 
PostPosted: 07 Oct 2012 
А может смените мне статус?..
Joined: 03 Jul 2009
Posts: 883
Lоcаtion: Serbia
Name: Laki
Thanks


Top
 Profile E-mail  
 
 
PostPosted: 05 Nov 2016 
5cm
User avatar
Joined: 28 Mar 2013
Posts: 66
Age: 28
Name: Erik
Please friends, share a new link in lossless version !!

Thanks a lot !!


Top
 Profile E-mail  
 
 
PostPosted: 05 Nov 2016 
А может смените мне статус?..
User avatar
Joined: 22 Nov 2008
Posts: 972
Lоcаtion: Schelcovo,Russia
Age: 47
Name: Сергей
Перезалить?


Top
 Profile  
 
 
PostPosted: 06 Nov 2016 
Хиппей (support team)
User avatar
Joined: 30 Jul 2007
Posts: 114364
Lоcаtion: Киев (Kyiv, UA)
Age: 46
Name: Andrey
Ага, и я бы не отказался.
А ссылки зачем удалял? :vic: Или типа сами йок?

_________________


Top
 Profile E-mail  
 
 
PostPosted: 06 Nov 2016 
5cm
User avatar
Joined: 28 Mar 2013
Posts: 66
Age: 28
Name: Erik
It is an incredible compilation, please friend again share in lossless version !!

PLEASE !!

:zayaz:


Top
 Profile E-mail  
 
 
PostPosted: 07 Nov 2016 
А может смените мне статус?..
User avatar
Joined: 22 Nov 2008
Posts: 972
Lоcаtion: Schelcovo,Russia
Age: 47
Name: Сергей
Image
VA - On The Edge Of Death (1990)

Laserlight - 15 216

Tracks:
01.CROSSHEAD - Danger
02.DEATH SQUAD - F... Like An Animal
03.KILLER - Shockwaves ~ Scarecrow
04.KILLER - In The Name Of The Law
05.CRYSTAL PRIDE - Thousand Nights
06.CRYSTAL PRIDE - Flight Of Heart
07.LAZY - Out Of Sight
08.LAZY - Rock On
09.LAZY - Strange Woman
10.SHERE KHAN - Stroke Of Love
11.SHERE KHAN - Quite Enough For Love
12.SHERE KHAN - The Crowd Is Getting Hungry
13.LYNX - Nightwalker
14.LYNX - Don't Fool Me
15.TORRENT - Lost In The Army

Lossless
Mp3

"log"
Отчёт EAC об извлечении, выполненном 6. октября 2012, 22:23 для диска:
Various / On The Edge Of Death

Дисковод: HL-DT-STDVDRAM GT32N Adapter: 0 ID: 1
Режим чтения: Скоростной
Коррекция смещения при чтении: 0
Способность читать области Lead-in и Lead-out : Нет

Выходной формат: Внутренние WAV-операции
44.100 Гц; 16 бит; стерео

Другие параметры:
Заполнение пропущенных сэмплов тишиной : Да
Удаление блоков с тишиной в начале и конце : Нет
Установленный внешний ASPI-интерфейс


Характеристики диапазона извлечения и сообщения об ошибках
Выбранный диапазон
Имя файла C:\Users\Сергей\Music\V.A. - On The Edge Of Death (1990)\Various - On The Edge Of Death.wav

Пиковый уровень 100.0 %
CRC 8FCDF8CF
Копирование... OK

Ошибок не произошло

Конец отчёта

"cue"
REM GENRE "Hard Rock"
REM DATE 1990
REM DISCID C60DBB0F
REM COMMENT "ExactAudioCopy v0.95b4"
PERFORMER "Various"
TITLE "On The Edge Of Death"
FILE "Various - On The Edge Of Death.wav" WAVE
TRACK 01 AUDIO
TITLE "CROSSHEAD - Danger"
PERFORMER "CROSSHEAD - Danger"
INDEX 01 00:00:00
TRACK 02 AUDIO
TITLE " DEATH SQUAD - F... Like An Animal"
PERFORMER " DEATH SQUAD - F... Like An Animal"
INDEX 00 04:06:45
INDEX 01 04:08:00
TRACK 03 AUDIO
TITLE " KILLER - Shockwaves ~ Scarecrow "
PERFORMER " KILLER - Shockwaves ~ Scarecrow "
INDEX 00 08:32:40
INDEX 01 08:34:00
TRACK 04 AUDIO
TITLE "KILLER - In The Name Of The Law"
PERFORMER "KILLER - In The Name Of The Law"
INDEX 00 12:44:68
INDEX 01 12:46:00
TRACK 05 AUDIO
TITLE "CRYSTAL PRIDE - Thousand Nights"
PERFORMER "CRYSTAL PRIDE - Thousand Nights"
INDEX 01 16:03:00
TRACK 06 AUDIO
TITLE "CRYSTAL PRIDE - Flight Of Heart"
PERFORMER "CRYSTAL PRIDE - Flight Of Heart"
INDEX 00 19:42:68
INDEX 01 19:44:00
TRACK 07 AUDIO
TITLE "LAZY - Out Of Sight"
PERFORMER "LAZY - Out Of Sight"
INDEX 01 23:28:38
TRACK 08 AUDIO
TITLE "LAZY - Rock On "
PERFORMER "LAZY - Rock On "
INDEX 00 27:38:58
INDEX 01 27:40:00
TRACK 09 AUDIO
TITLE "LAZY - Strange Woman"
PERFORMER "LAZY - Strange Woman"
INDEX 00 31:28:59
INDEX 01 31:30:00
TRACK 10 AUDIO
TITLE "SHERE KHAN - Stroke Of Love"
PERFORMER "SHERE KHAN - Stroke Of Love"
INDEX 01 35:07:00
TRACK 11 AUDIO
TITLE " SHERE KHAN - Quite Enough For Love "
PERFORMER " SHERE KHAN - Quite Enough For Love "
INDEX 00 39:10:25
INDEX 01 39:11:38
TRACK 12 AUDIO
TITLE "SHERE KHAN - The Crowd Is Getting Hungry"
PERFORMER "SHERE KHAN - The Crowd Is Getting Hungry"
INDEX 00 42:48:70
INDEX 01 42:50:00
TRACK 13 AUDIO
TITLE "LYNX - Nightwalker"
PERFORMER "LYNX - Nightwalker"
INDEX 01 46:44:00
TRACK 14 AUDIO
TITLE "LYNX - Don't Fool Me"
PERFORMER "LYNX - Don't Fool Me"
INDEX 01 50:45:00
TRACK 15 AUDIO
TITLE "TORRENT - Lost In The Army"
PERFORMER "TORRENT - Lost In The Army"
INDEX 01 55:09:00

Сканы есть.


Top
 Profile  
 
 
PostPosted: 07 Nov 2016 
А может смените мне статус?..
User avatar
Joined: 22 Nov 2008
Posts: 972
Lоcаtion: Schelcovo,Russia
Age: 47
Name: Сергей
Image
VA - On The Edge Of Death (1990)

Laserlight - 15 216

Tracks:
01.CROSSHEAD - Danger
02.DEATH SQUAD - F... Like An Animal
03.KILLER - Shockwaves ~ Scarecrow
04.KILLER - In The Name Of The Law
05.CRYSTAL PRIDE - Thousand Nights
06.CRYSTAL PRIDE - Flight Of Heart
07.LAZY - Out Of Sight
08.LAZY - Rock On
09.LAZY - Strange Woman
10.SHERE KHAN - Stroke Of Love
11.SHERE KHAN - Quite Enough For Love
12.SHERE KHAN - The Crowd Is Getting Hungry
13.LYNX - Nightwalker
14.LYNX - Don't Fool Me
15.TORRENT - Lost In The Army

Lossless
Mp3

"log"
Отчёт EAC об извлечении, выполненном 6. октября 2012, 22:23 для диска:
Various / On The Edge Of Death

Дисковод: HL-DT-STDVDRAM GT32N Adapter: 0 ID: 1
Режим чтения: Скоростной
Коррекция смещения при чтении: 0
Способность читать области Lead-in и Lead-out : Нет

Выходной формат: Внутренние WAV-операции
44.100 Гц; 16 бит; стерео

Другие параметры:
Заполнение пропущенных сэмплов тишиной : Да
Удаление блоков с тишиной в начале и конце : Нет
Установленный внешний ASPI-интерфейс


Характеристики диапазона извлечения и сообщения об ошибках
Выбранный диапазон
Имя файла C:\Users\Сергей\Music\V.A. - On The Edge Of Death (1990)\Various - On The Edge Of Death.wav

Пиковый уровень 100.0 %
CRC 8FCDF8CF
Копирование... OK

Ошибок не произошло

Конец отчёта

"cue"
REM GENRE "Hard Rock"
REM DATE 1990
REM DISCID C60DBB0F
REM COMMENT "ExactAudioCopy v0.95b4"
PERFORMER "Various"
TITLE "On The Edge Of Death"
FILE "Various - On The Edge Of Death.wav" WAVE
TRACK 01 AUDIO
TITLE "CROSSHEAD - Danger"
PERFORMER "CROSSHEAD - Danger"
INDEX 01 00:00:00
TRACK 02 AUDIO
TITLE " DEATH SQUAD - F... Like An Animal"
PERFORMER " DEATH SQUAD - F... Like An Animal"
INDEX 00 04:06:45
INDEX 01 04:08:00
TRACK 03 AUDIO
TITLE " KILLER - Shockwaves ~ Scarecrow "
PERFORMER " KILLER - Shockwaves ~ Scarecrow "
INDEX 00 08:32:40
INDEX 01 08:34:00
TRACK 04 AUDIO
TITLE "KILLER - In The Name Of The Law"
PERFORMER "KILLER - In The Name Of The Law"
INDEX 00 12:44:68
INDEX 01 12:46:00
TRACK 05 AUDIO
TITLE "CRYSTAL PRIDE - Thousand Nights"
PERFORMER "CRYSTAL PRIDE - Thousand Nights"
INDEX 01 16:03:00
TRACK 06 AUDIO
TITLE "CRYSTAL PRIDE - Flight Of Heart"
PERFORMER "CRYSTAL PRIDE - Flight Of Heart"
INDEX 00 19:42:68
INDEX 01 19:44:00
TRACK 07 AUDIO
TITLE "LAZY - Out Of Sight"
PERFORMER "LAZY - Out Of Sight"
INDEX 01 23:28:38
TRACK 08 AUDIO
TITLE "LAZY - Rock On "
PERFORMER "LAZY - Rock On "
INDEX 00 27:38:58
INDEX 01 27:40:00
TRACK 09 AUDIO
TITLE "LAZY - Strange Woman"
PERFORMER "LAZY - Strange Woman"
INDEX 00 31:28:59
INDEX 01 31:30:00
TRACK 10 AUDIO
TITLE "SHERE KHAN - Stroke Of Love"
PERFORMER "SHERE KHAN - Stroke Of Love"
INDEX 01 35:07:00
TRACK 11 AUDIO
TITLE " SHERE KHAN - Quite Enough For Love "
PERFORMER " SHERE KHAN - Quite Enough For Love "
INDEX 00 39:10:25
INDEX 01 39:11:38
TRACK 12 AUDIO
TITLE "SHERE KHAN - The Crowd Is Getting Hungry"
PERFORMER "SHERE KHAN - The Crowd Is Getting Hungry"
INDEX 00 42:48:70
INDEX 01 42:50:00
TRACK 13 AUDIO
TITLE "LYNX - Nightwalker"
PERFORMER "LYNX - Nightwalker"
INDEX 01 46:44:00
TRACK 14 AUDIO
TITLE "LYNX - Don't Fool Me"
PERFORMER "LYNX - Don't Fool Me"
INDEX 01 50:45:00
TRACK 15 AUDIO
TITLE "TORRENT - Lost In The Army"
PERFORMER "TORRENT - Lost In The Army"
INDEX 01 55:09:00

Сканы есть.


Обновил.


Top
 Profile  
 
 
PostPosted: 07 Nov 2016 
5cm
User avatar
Joined: 28 Mar 2013
Posts: 66
Age: 28
Name: Erik
THANKS A LOT MY FRIEND !!

:dash: !!


Top
 Profile E-mail  
 
 
PostPosted: 08 Nov 2016 
Хиппей (support team)
User avatar
Joined: 30 Jul 2007
Posts: 114364
Lоcаtion: Киев (Kyiv, UA)
Age: 46
Name: Andrey
:thanx:

mirror:

mp3: iFolder l Narod l M-Cloud
lossless: iFolder l Narod l M-Cloud

_________________


Top
 Profile E-mail  
 
 
PostPosted: 08 Nov 2016 
Power Metal Maniac
User avatar
Joined: 09 Aug 2008
Posts: 6857
Lоcаtion: Москва
Age: 41
Name: Егор
:thanx:

_________________
Long Live Metal!


Top
 Profile  
 
 
PostPosted: 08 Nov 2016 
Рарник и трушник
User avatar
Joined: 25 Dec 2009
Posts: 8752
Lоcаtion: Москва
Age: 54
Name: Виталий
Спасибо! :thanx:


Top
 Profile  
 
 
PostPosted: 09 Nov 2016 
Хиппей (support team)
User avatar
Joined: 30 Jul 2007
Posts: 114364
Lоcаtion: Киев (Kyiv, UA)
Age: 46
Name: Andrey
snider1971 wrote:
02.DEATH SQUAD - F... Like An Animal

Пока из всего сборника эта группа и песня порвала больше всего :shok:
Вчера мне они не понравились в другом топике, а сегодня о как вышло.
Напомнили Pestilence и других грандов дэз-трэша.

А кавер ли это я пока так и не понял =) :pardon:

Ну и ещё. Группа выпадает своей единственной песней из этого хардынхэви-сборника.

_________________


Top
 Profile E-mail  
 
 
PostPosted: 09 Nov 2016 
Хиппей (support team)
User avatar
Joined: 30 Jul 2007
Posts: 114364
Lоcаtion: Киев (Kyiv, UA)
Age: 46
Name: Andrey
snider1971 wrote:
01.CROSSHEAD - Danger

Красота :meloman: :lob: :lob: :lob:
Speed Power Heavy 80's.

_________________


Top
 Profile E-mail  
 
 
PostPosted: 09 Nov 2016 
Хиппей (support team)
User avatar
Joined: 30 Jul 2007
Posts: 114364
Lоcаtion: Киев (Kyiv, UA)
Age: 46
Name: Andrey
snider1971 wrote:
KILLER

Дык, знатная группа, классические два хита.

_________________


Top
 Profile E-mail  
 
 
PostPosted: 09 Nov 2016 
Хиппей (support team)
User avatar
Joined: 30 Jul 2007
Posts: 114364
Lоcаtion: Киев (Kyiv, UA)
Age: 46
Name: Andrey
snider1971 wrote:
CRYSTAL PRIDE

Девушка на вокале. Обычный хэви, но качественно-приятный.

_________________


Top
 Profile E-mail  
 
 
PostPosted: 09 Nov 2016 
Хиппей (support team)
User avatar
Joined: 30 Jul 2007
Posts: 114364
Lоcаtion: Киев (Kyiv, UA)
Age: 46
Name: Andrey
snider1971 wrote:
LAZY

Средненький такой себе хэви :pardon:

_________________


Top
 Profile E-mail  
 
 
PostPosted: 09 Nov 2016 
Хиппей (support team)
User avatar
Joined: 30 Jul 2007
Posts: 114364
Lоcаtion: Киев (Kyiv, UA)
Age: 46
Name: Andrey
snider1971 wrote:
SHERE KHAN

Фигня какая-то хард-роковая.

_________________


Top
 Profile E-mail  
 
Display posts from previous:  Sort by  
Post new topic Reply to topic  [ 23 posts ]  Go to page 1, 2  Next

All times are UTC + 3 hours


Who is online

Users browsing this forum: No registered users and 3 guests


You cannot post new topics in this forum
You cannot reply to topics in this forum
You cannot edit your posts in this forum
You cannot delete your posts in this forum
You cannot post attachments in this forum

Search for:
Яндекс.Метрика
Powered by phpBB © 2000, 2002, 2005, 2007 phpBB Group