\m/ 80's metal \m/

Информационно-аналитический форум "80 см пыли" (In Search We Trust) "У нас никто никуда не спешит"
Me For You - http://me-4u.com
It is currently 19 Nov 2018

All times are UTC + 3 hours

Spoiler
Chat - temporary registration for foreign users (please leave your application here)







Post new topic Reply to topic  [ 3 posts ] 
Author Message
 
PostPosted: 25 Nov 2010 
Хиппей (support team)
User avatar
Joined: 30 Jul 2007
Posts: 108191
Lоcаtion: Киев (Kyiv, UA)
Age: 45
Name: Andrey
Zen Venom - 1988 - From Another Planet (reissued 2008) [flac]

Image

Genre: NWOBHM (Heavy+Punk)
Location: Australia
Format: flac+cue+log+scans
Size: 278 Mb


Quote:
Re-released on CD by Heavy Melody Music in 2008 with bonuses


    1. From Another Planet - 02:55
    2. Brainwashed - 04:13
    3. Kiss Of Death - 04:45
    4. Fools Gold - 03:17
    5. In What You Take (bonus) - 03:18
    6. Demon Slayer (bonus) - 04:53
    7. Fire All You Shots (bonus) - 04:10
    8. Lost Travellers (bonus) - 05:53

    TPT: 33:25

MultiUp l Narod

Thanx to Exploded from MMT :thanx:

log
EAC extraction logfile from 3. February 2010, 21:48 for CD
Zen Venom / From Another Planet

Used drive : MS Adapter: 1 ID: 0
Read mode : Secure with NO C2, accurate stream, disable cache
Read offset correction : 667
Overread into Lead-In and Lead-Out : No

Used output format : C:\FLAC.EXE (User Defined Encoder)
32 kBit/s
Additional command line options : -6 -V %s

Other options :
Fill up missing offset samples with silence : Yes
Delete leading and trailing silent blocks : No
Native Win32 interface for Win NT & 2000


Range status and errors
Selected range
Filename C:\Documents and Settings\XPMUser\Desktop\Zen Venom 2008.flac.wav

Peak level 99.9 %
Range quality 100.0 %
CRC BC42A388
Copy OK

No errors occured

End of status report


cue
PERFORMER "Zen Venom"
TITLE "From Another Planet"
FILE "Zen Venom 2008.flac" WAVE
TRACK 01 AUDIO
TITLE "From Another Planet"
PERFORMER "Zen Venom"
INDEX 01 00:00:00
TRACK 02 AUDIO
TITLE "Brainwashed"
PERFORMER "Zen Venom"
INDEX 01 02:55:68
TRACK 03 AUDIO
TITLE "Kiss Of Death"
PERFORMER "Zen Venom"
INDEX 00 07:07:17
INDEX 01 07:08:72
TRACK 04 AUDIO
TITLE "Fool's Gold"
PERFORMER "Zen Venom"
INDEX 01 11:53:56
TRACK 05 AUDIO
TITLE "In What You Take"
PERFORMER "Zen Venom"
INDEX 01 15:10:11
TRACK 06 AUDIO
TITLE "Demon Slayer"
PERFORMER "Zen Venom"
INDEX 01 18:28:22
TRACK 07 AUDIO
TITLE "Fire All Yourt Shots"
PERFORMER "Zen Venom"
INDEX 01 23:21:35
TRACK 08 AUDIO
TITLE "Lost Travellers"
PERFORMER "Zen Venom"
INDEX 00 27:31:67
INDEX 01 27:36:00




Сразу о звуке. Он, как ни странно, весьма и весьма качественный, так что огромный респект за переиздание :dance:
По музыке же это... Ммм, давайте так кратко попытаюсь сказать - смесь первых альбомов Iron Maiden и Dead Kennedys.
То есть, это еще не совсем хэви, но уже далеко и не панк-рок. Но присуствие обоих стилей очень заметно.
Да, можно назвать это направление NWOBHM, но с некоторой натяжечкой. Ибо тут еще и прого-сайкоделические моменты присутсвуют. Кстати, хард-рок ребятки сразу проскочили, если что. Нету его здесь совершенно.
В общем, хороший релиз, выше среднего - оценка ему 7/10

_________________


Top
 Profile E-mail  
 
 
PostPosted: 25 Nov 2010 
А может смените мне статус?..
User avatar
Joined: 28 Oct 2009
Posts: 662
Lоcаtion: Sweden
Age: 31
Name: Emil
:true:

_________________
http://strappadometalblog.blogspot.com | http://heavymetalrarities.com/forum


Top
 Profile E-mail  
 
 
PostPosted: 25 Nov 2010 
спирт 100%
User avatar
Joined: 22 Sep 2008
Posts: 4314
Age: 47
Name: Саня
:thanx: Андрей,Спасибо! :true:


Top
 Profile  
 
Display posts from previous:  Sort by  
Post new topic Reply to topic  [ 3 posts ] 

All times are UTC + 3 hours


Who is online

Users browsing this forum: No registered users and 2 guests


You cannot post new topics in this forum
You cannot reply to topics in this forum
You cannot edit your posts in this forum
You cannot delete your posts in this forum
You cannot post attachments in this forum

Search for:
Яндекс.Метрика
Powered by phpBB © 2000, 2002, 2005, 2007 phpBB Group