\m/ 80's metal \m/

Информационно-аналитический форум "80 см пыли" (In Search We Trust) "У нас никто никуда не спешит"
Железнодорожная биржа - RailAgent
It is currently 25 May 2018

All times are UTC + 3 hours

Spoiler
Chat - temporary registration for foreign users (please leave your application here)







Post new topic Reply to topic  [ 2 posts ] 
Author Message
 
PostPosted: 03 Nov 2010 
ыыыы
User avatar
Joined: 17 May 2009
Posts: 952
Lоcаtion: Пушкино, МО
Age: 39
Name: Дмитрий
Image


Жанр: Hard Rock
Происхождение исполнителя: США
Год издания: 1983
Год издания данного носителя: 1984
Страна-производитель носителя: Япония
Аудио кодек: FLAC
Тип рипа: image+.cue
Битрейт аудио: lossless
Продолжительность: 45:23
Рип: Собственный
Лейбл: WB/WARNER-PIONEER
Каталоговый номер: 32XD-133
Матрица: 32XD-133 11A3 +++++ (SONY)

Треклист:
1. Gimme All Your Lovin' 04:04
2. Got Me Under Pressure 04:03
3. Sharp Dressed Man 04:18
4. I Need You Tonight 06:17
5. I Got the Six 02:56
6. Legs 04:35
7. Thug 04:19
8. TV Dinners 03:50
9. Dirty Dog 04:05
10. If I Could Only Flag Her Down 03:41
11. Bad Girl 03:15

"Куй"
REM GENRE Rock
REM DATE 1983
REM DISCID 8B0AA20B
REM COMMENT "ExactAudioCopy v0.99pb5"
PERFORMER "ZZ Top"
TITLE "Eliminator [32XD-133]"
FILE "ZZ Top - Eliminator [32XD-133].flac" WAVE
TRACK 01 AUDIO
TITLE "Gimme All Your Lovin'"
PERFORMER "ZZ Top"
INDEX 01 00:00:00
TRACK 02 AUDIO
TITLE "Got Me Under Pressure"
PERFORMER "ZZ Top"
INDEX 00 03:59:50
INDEX 01 04:04:12
TRACK 03 AUDIO
TITLE "Sharp Dressed Man"
PERFORMER "ZZ Top"
INDEX 00 08:03:00
INDEX 01 08:07:00
TRACK 04 AUDIO
TITLE "I Need You Tonight"
PERFORMER "ZZ Top"
INDEX 00 12:20:62
INDEX 01 12:25:07
TRACK 05 AUDIO
TITLE "I Got the Six"
PERFORMER "ZZ Top"
INDEX 00 18:39:27
INDEX 01 18:42:37
TRACK 06 AUDIO
TITLE "Legs"
PERFORMER "ZZ Top"
INDEX 00 21:34:32
INDEX 01 21:38:12
TRACK 07 AUDIO
TITLE "Thug"
PERFORMER "ZZ Top"
INDEX 01 26:12:55
TRACK 08 AUDIO
TITLE "TV Dinners"
PERFORMER "ZZ Top"
INDEX 00 30:29:37
INDEX 01 30:31:35
TRACK 09 AUDIO
TITLE "Dirty Dog"
PERFORMER "ZZ Top"
INDEX 01 34:21:50
TRACK 10 AUDIO
TITLE "If I Could Only Flag Her Down"
PERFORMER "ZZ Top"
INDEX 00 38:25:40
INDEX 01 38:26:25
TRACK 11 AUDIO
TITLE "Bad Girl"
PERFORMER "ZZ Top"
INDEX 00 42:05:50
INDEX 01 42:07:22


"Лог"
Exact Audio Copy V0.99 prebeta 5 from 4. May 2009

Отчёт EAC об извлечении, выполненном 20. января 2010, 22:18

ZZ Top / Eliminator [32XD-133]

Дисковод: ASUS DRW-2014S1 Adapter: 1 ID: 0

Режим чтения : Достоверность
Использование точного потока : Да
Отключение кэша аудио : Да
Использование указателей C2 : Нет

Коррекция смещения при чтении : 6
Способность читать области Lead-in и Lead-out : Нет
Заполнение пропущенных сэмплов тишиной : Да
Удаление блоков с тишиной в начале и конце : Нет
При вычислениях CRC использовались нулевые сэмплы : Нет
Интерфейс : Установленный внешний ASPI-интерфейс

Выходной формат : Внутренние WAV-операции
Формат сэмплов : 44.100 Гц; 16 бит; стерео


TOC извлечённого CD

Трек | Старт | Длительность | Начальный сектор | Конечный сектор
---------------------------------------------------------------------
1 | 0:00.00 | 4:04.12 | 0 | 18311
2 | 4:04.12 | 4:02.63 | 18312 | 36524
3 | 8:07.00 | 4:18.07 | 36525 | 55881
4 | 12:25.07 | 6:17.30 | 55882 | 84186
5 | 18:42.37 | 2:55.50 | 84187 | 97361
6 | 21:38.12 | 4:34.43 | 97362 | 117954
7 | 26:12.55 | 4:18.55 | 117955 | 137359
8 | 30:31.35 | 3:50.15 | 137360 | 154624
9 | 34:21.50 | 4:04.50 | 154625 | 172974
10 | 38:26.25 | 3:40.72 | 172975 | 189546
11 | 42:07.22 | 3:15.25 | 189547 | 204196


Характеристики диапазона извлечения и сообщения об ошибках

Выбранный диапазон

Имя файла Y:\Музыка\ZZ Top\1983 Eliminator\ZZ Top - Eliminator [32XD-133].wav

Пиковый уровень 86.4 %
Качество диапазона 99.9 %
CRC копии 563634F0
Копирование... OK

Ошибок не произошло


AccurateRip: сводка

Трек 1 точное извлечение (доверие 1) [FFE73CF6]
Трек 2 точное извлечение (доверие 1) [282FD968]
Трек 3 точное извлечение (доверие 1) [F378DFAE]
Трек 4 точное извлечение (доверие 1) [23D08B7B]
Трек 5 точное извлечение (доверие 1) [5B09FA9A]
Трек 6 точное извлечение (доверие 1) [B9CBBB8C]
Трек 7 точное извлечение (доверие 1) [0DF2C7DA]
Трек 8 точное извлечение (доверие 1) [2D1B4B4A]
Трек 9 точное извлечение (доверие 1) [8A28E553]
Трек 10 точное извлечение (доверие 1) [E5979837]
Трек 11 точное извлечение (доверие 1) [F78E8FA3]

Все треки извлечены точно

Конец отчёта


Состав:
Billy Gibbons: Guitar, lead vocals
Dusty Hill: Bass, keyboards, backing vocals, lead vocals on "I Got the Six"
Frank Beard: Drums, percussion, backing vocals on "Gimme All Your Lovin"

32XD-133

_________________
Витасу до Даймонда как Алсу до Руссоса | При переразмещении - спрашивать разрешение!!


Top
 Profile  
 
 
PostPosted: 03 Nov 2010 
Хиппей (support team)
User avatar
Joined: 30 Jul 2007
Posts: 103633
Lоcаtion: Киев (Kyiv, UA)
Age: 44
Name: Andrey
Классико :true:

_________________


Top
 Profile E-mail  
 
Display posts from previous:  Sort by  
Post new topic Reply to topic  [ 2 posts ] 

All times are UTC + 3 hours


Who is online

Users browsing this forum: No registered users and 2 guests


You cannot post new topics in this forum
You cannot reply to topics in this forum
You cannot edit your posts in this forum
You cannot delete your posts in this forum
You cannot post attachments in this forum

Search for:
Яндекс.Метрика
Powered by phpBB © 2000, 2002, 2005, 2007 phpBB Group