\m/ 80's metal \m/

Информационно-аналитический форум "80 см пыли" (In Search We Trust) "У нас никто никуда не спешит"
Me For You - http://me-4u.com
It is currently 16 Nov 2018

All times are UTC + 3 hours

Spoiler
Chat - temporary registration for foreign users (please leave your application here)







Post new topic Reply to topic  [ 13 posts ] 
Author Message
 
PostPosted: 03 Nov 2010 
ыыыы
User avatar
Joined: 17 May 2009
Posts: 952
Lоcаtion: Пушкино, МО
Age: 40
Name: Дмитрий
Image


Жанр: Hard Rock
Происхождение исполнителя: США
Год издания: 1985
Год издания данного носителя: 1985
Страна-производитель носителя: Япония
Аудио кодек: FLAC
Тип рипа: image+.cue
Битрейт аудио: lossless
Продолжительность: 37:35
Рип: Собственный
Лейбл: WB/WARNER-PIONEER
Каталоговый номер: 32XD-374
Матрица: 32XD-374 11A1 +++++ (SONY)

Треклист:
1. Sleeping Bag 04:06
2. Stages 03:35
3. Woke Up with Wood 0 3:50
4. Rough Boy 04:52
5. Can't Stop Rockin' 03:04
6. Planet of Women 04:07
7. I Got the Message 03:30
8. Velcro Fly 03:30
9. Dipping Low (In the Lap of Luxury) 03:15
10. Delirious 03:42

"Куй"
REM GENRE "Hard Rock"
REM DATE 1985
REM DISCID 8F08CF0A
REM COMMENT "ExactAudioCopy v0.99pb5"
PERFORMER "ZZ Top"
TITLE "Afterburner [32XD-374]"
FILE "ZZ Top - Afterburner [32XD-374].flac" WAVE
TRACK 01 AUDIO
TITLE "Sleeping Bag"
PERFORMER "ZZ Top"
INDEX 01 00:00:00
TRACK 02 AUDIO
TITLE "Stages"
PERFORMER "ZZ Top"
INDEX 00 04:03:12
INDEX 01 04:06:30
TRACK 03 AUDIO
TITLE "Woke up With Wood"
PERFORMER "ZZ Top"
INDEX 00 07:39:25
INDEX 01 07:41:30
TRACK 04 AUDIO
TITLE "Rough Boy"
PERFORMER "ZZ Top"
INDEX 00 11:27:62
INDEX 01 11:31:00
TRACK 05 AUDIO
TITLE "Can't Stop Rockin'"
PERFORMER "ZZ Top"
INDEX 00 16:21:00
INDEX 01 16:23:32
TRACK 06 AUDIO
TITLE "Planet of Women"
PERFORMER "ZZ Top"
INDEX 00 19:25:62
INDEX 01 19:27:60
TRACK 07 AUDIO
TITLE "I Got the Message"
PERFORMER "ZZ Top"
INDEX 00 23:31:37
INDEX 01 23:34:42
TRACK 08 AUDIO
TITLE "Velcro Fly"
PERFORMER "ZZ Top"
INDEX 00 27:03:25
INDEX 01 27:04:62
TRACK 09 AUDIO
TITLE "Dipping Low in the Lap of Luxury"
PERFORMER "ZZ Top"
INDEX 00 30:34:50
INDEX 01 30:37:47
TRACK 10 AUDIO
TITLE "Delirious"
PERFORMER "ZZ Top"
INDEX 00 33:49:50
INDEX 01 33:52:50


"Лог"
Exact Audio Copy V0.99 prebeta 5 from 4. May 2009

Отчёт EAC об извлечении, выполненном 3. ноября 2010, 0:15

ZZ Top / Afterburner [32XD-374]

Дисковод: ASUS DRW-2014S1 Adapter: 1 ID: 0

Режим чтения : Достоверность
Использование точного потока : Да
Отключение кэша аудио : Да
Использование указателей C2 : Нет

Коррекция смещения при чтении : 6
Способность читать области Lead-in и Lead-out : Нет
Заполнение пропущенных сэмплов тишиной : Да
Удаление блоков с тишиной в начале и конце : Нет
При вычислениях CRC использовались нулевые сэмплы : Да
Интерфейс : Установленный внешний ASPI-интерфейс

Выходной формат : Пользовательский кодировщик
Выбранный битрейт : 128 kBit/s
Качество : Высокий
Добавление ID3-тэга : Нет
Утилита сжатия : C:\Program Files\Exact Audio Copy\Flac\flac.exe
Дополнительные параметры : -6 -V -T "artist=%a" -T "title=%t" -T "album=%g" -T "date=%y" -T "tracknumber=%n" -T "genre=%m" -T "comment=EAC 0.99beta5 / FLAC 1.1.0 q6" %s


TOC извлечённого CD

Трек | Старт | Длительность | Начальный сектор | Конечный сектор
---------------------------------------------------------------------
1 | 0:00.00 | 4:06.30 | 0 | 18479
2 | 4:06.30 | 3:35.00 | 18480 | 34604
3 | 7:41.30 | 3:49.45 | 34605 | 51824
4 | 11:31.00 | 4:52.32 | 51825 | 73756
5 | 16:23.32 | 3:04.28 | 73757 | 87584
6 | 19:27.60 | 4:06.57 | 87585 | 106091
7 | 23:34.42 | 3:30.20 | 106092 | 121861
8 | 27:04.62 | 3:32.60 | 121862 | 137821
9 | 30:37.47 | 3:15.03 | 137822 | 152449
10 | 33:52.50 | 3:42.25 | 152450 | 169124


Характеристики диапазона извлечения и сообщения об ошибках

Выбранный диапазон

Имя файла Y:\Музыка\ZZ Top\1985 Afterburner\ZZ Top - Afterburner [32XD-374].wav

Пиковый уровень 100.0 %
Качество диапазона 100.0 %
CRC теста 36CA055C
CRC копии 36CA055C
Копирование... OK

Ошибок не произошло

Конец отчёта


Состав:
Billy Gibbons: Guitar, lead vocals
Dusty Hill: Bass, keyboards, backing vocals, lead vocals on "Can't Stop Rockin'" and "Delirious"
Frank Beard: Drums, backing vocals

32XD-374

_________________
Витасу до Даймонда как Алсу до Руссоса | При переразмещении - спрашивать разрешение!!


Top
 Profile  
 
 
PostPosted: 03 Nov 2010 
Хиппей (support team)
User avatar
Joined: 30 Jul 2007
Posts: 108059
Lоcаtion: Киев (Kyiv, UA)
Age: 45
Name: Andrey
:thanx:

_________________


Top
 Profile E-mail  
 
 
PostPosted: 03 Nov 2010 
Пионэръ
User avatar
Joined: 02 Jul 2010
Posts: 45
Lоcаtion: Сочи
Age: 46
Name: Борис
Эти старички никогда не постареют :nunu: :nunu:
Спасибо Дима :true: :true:
Отличный звук :band:


Last edited by tool9 on 03 Nov 2010, edited 1 time in total.

Top
 Profile E-mail  
 
 
PostPosted: 03 Nov 2010 
парень в очёчкXаX!
User avatar
Joined: 15 Aug 2007
Posts: 2353
Lоcаtion: UK'раина, г. ЛондАн Би-Би-Си
Age: 48
Name: Сергей
ээх, самый мой, самый!!!! ну а 4 трэк выносит моZZг!!!
хотя "РИСАЙКЛЕР" тож очень люблю :meloman:

:gra:


Top
 Profile  
 
 
PostPosted: 03 Nov 2010 
Позитивный Южанин
User avatar
Joined: 07 May 2010
Posts: 1620
Lоcаtion: КРЫМ
Age: 43
Name: Алексей
У этих бородачей всегда была большая армия болельщиков...Сразу перед глазами первое знакомство с бандой проплывает...Где то 89 год,Журнал Ровесник,разворот плакатик страничка А4 формата и три :au: :au: :au:

_________________
WATER'EM ALL!


Top
 Profile E-mail  
 
 
PostPosted: 03 Nov 2010 
Навечно изгнанный
User avatar
Joined: 04 May 2009
Posts: 488
Lоcаtion: Загорск (Сергиев Посад)
Age: 47
Name: Евгений
Отличный альбом! В своё время заслушал кассету до дыр. Спасибо! :meloman:

_________________
"$? -Это не деньги! Рубли давайте!"


Top
 Profile  
 
 
PostPosted: 03 Nov 2010 
Old Time Rock`n`Roll
User avatar
Joined: 23 Jun 2008
Posts: 3363
Lоcаtion: г.Ульяновск
Age: 40
Name: Константин
Спасибо, в отличие от 1983 г. почти поп-рок, но песни классные, Rough Boy и Can`t Stop Rockin - эталоны баллады и скоростной вещи :meloman:


Top
 Profile  
 
 
PostPosted: 05 Nov 2010 
ыыыы
User avatar
Joined: 17 May 2009
Posts: 952
Lоcаtion: Пушкино, МО
Age: 40
Name: Дмитрий
attax wrote:
хотя "РИСАЙКЛЕР" тож очень люблю :meloman:

:gra:

Если ничего не произойдет, то выложу

_________________
Витасу до Даймонда как Алсу до Руссоса | При переразмещении - спрашивать разрешение!!


Top
 Profile  
 
 
PostPosted: 07 Nov 2010 
Зарегился вот...
Joined: 07 Nov 2010
Posts: 4
Lоcаtion: Санкт-Петербург
Name: Макс
Что-то ничего кроме "Раф Бой" вспомнить не могу. Третья песня прикольно названа. Интересно, о чем это они там поют?


Top
 Profile E-mail  
 
 
PostPosted: 07 Nov 2010 
Труъ
User avatar
Joined: 14 Jul 2010
Posts: 104
Lоcаtion: Украина, Донецк
Age: 33
Name: Санёк
Сталевар, очевидно дядя Гиббонс имеет в виду именно "дрова" в смысле состояния опьянения или похмелья. А еще у слова wood есть слэнговое значение "винная бочка". А тут как раз - "...My baby understood had to do what she should lying near a pile of wood." Альбом весьма угарен даже несмотря на это навязчивое коммерческое звучание. Мы очень любим с друзьями послушать этот диск и "Eliminator" во время пьянок. Под них очень хорошо поплясать можно. Ну не под Сердючку ж плясать ёпт? :ula:

_________________
Rock 'N' Roll is the only thing that keeps me from breaking apart (c)


Top
 Profile E-mail  
 
 
PostPosted: 07 Nov 2010 
Зарегился вот...
Joined: 07 Nov 2010
Posts: 4
Lоcаtion: Санкт-Петербург
Name: Макс
sycamore, теперь ясно. А то я уж нехорошее подумал. Альбом освежу в памяти, хотя я и не большой любитель ЗиЗи Топа. Ещё почему-то на память приходит звук барабанов с этого диска. Электронный такой. Хотя может это я путаю уже с кем-то...


Top
 Profile E-mail  
 
 
PostPosted: 07 Nov 2010 
Труъ
User avatar
Joined: 14 Jul 2010
Posts: 104
Lоcаtion: Украина, Донецк
Age: 33
Name: Санёк
Звук ударных действительно такой, каким вы его описали. Не вполне понятно, звучит ли там драм-бокс или барабаны были так сведены. Наверное это такая дань моде восьмидесятых.

_________________
Rock 'N' Roll is the only thing that keeps me from breaking apart (c)


Top
 Profile E-mail  
 
 
PostPosted: 08 Nov 2010 
ыыыы
User avatar
Joined: 17 May 2009
Posts: 952
Lоcаtion: Пушкино, МО
Age: 40
Name: Дмитрий
Сталевар
Я так понимаю- что-то типа- посадили лесок когда он был маленький. Лес подрос и он подрос. Лес стал переспелым- ну и он одной ногой в могиле ))

_________________
Витасу до Даймонда как Алсу до Руссоса | При переразмещении - спрашивать разрешение!!


Top
 Profile  
 
Display posts from previous:  Sort by  
Post new topic Reply to topic  [ 13 posts ] 

All times are UTC + 3 hours


Who is online

Users browsing this forum: No registered users and 2 guests


You cannot post new topics in this forum
You cannot reply to topics in this forum
You cannot edit your posts in this forum
You cannot delete your posts in this forum
You cannot post attachments in this forum

Search for:
Яндекс.Метрика
Powered by phpBB © 2000, 2002, 2005, 2007 phpBB Group