\m/ 80's metal \m/

Информационно-аналитический форум "80 см пыли" (In Search We Trust) "У нас никто никуда не спешит"
Железнодорожная биржа - RailAgent
It is currently 21 May 2018

All times are UTC + 3 hours

Spoiler
Chat - temporary registration for foreign users (please leave your application here)







Post new topic Reply to topic  [ 4 posts ] 
Author Message
 
PostPosted: 04 Sep 2010 
ыыыы
User avatar
Joined: 17 May 2009
Posts: 952
Lоcаtion: Пушкино, МО
Age: 39
Name: Дмитрий
Image


Жанр: Melodic Hard Rock
Происхождение исполнителя: Германия
Год издания: 1986
Год издания данного носителя: 1993
Страна-производитель носителя: Япония
Аудио кодек: FLAC
Тип рипа: image+.cue
Битрейт аудио: lossless
Продолжительность: 45:57
Рип: Собственный
Лейбл: EMI
Каталоговый номер: TOCP-8051
Матрица: TOCP-8051 2 A1 (SONY)

Треклист:
1. Eastern Sun 04:47
2. Little More Love 03:52
3. Love Will Live 04:44
4. Signs On The Sky 03:59
5. Far Away 04:37
6. Emergency 03:01
7. Don't Tell The Wind 06:14
8. Heart On THe Wing 05:17
9. Circles Of Dawn 03:57
10. Sent By Heaven 04:53
11. Sunset 0:34

"Куй"
REM GENRE "Hard Rock"
REM DATE 1986
REM DISCID 7E0AC40B
REM COMMENT "ExactAudioCopy v0.99pb5"
PERFORMER "Zeno"
TITLE "Zeno [TOCP-8051]"
FILE "Zeno - Zeno [TOCP-8051].flac" WAVE
TRACK 01 AUDIO
TITLE "Eastern Sun"
PERFORMER "Zeno"
INDEX 01 00:00:00
TRACK 02 AUDIO
TITLE "A Little More Love"
PERFORMER "Zeno"
INDEX 01 04:47:20
TRACK 03 AUDIO
TITLE "Love Will Live"
PERFORMER "Zeno"
INDEX 01 08:38:65
TRACK 04 AUDIO
TITLE "Signs On The Sky"
PERFORMER "Zeno"
INDEX 01 13:22:70
TRACK 05 AUDIO
TITLE "Far Away"
PERFORMER "Zeno"
INDEX 01 17:22:12
TRACK 06 AUDIO
TITLE "Emergency"
PERFORMER "Zeno"
INDEX 00 21:57:02
INDEX 01 21:59:25
TRACK 07 AUDIO
TITLE "Don't Tell The Wind"
PERFORMER "Zeno"
INDEX 01 25:00:32
TRACK 08 AUDIO
TITLE "Heart On The Wing"
PERFORMER "Zeno"
INDEX 00 31:13:65
INDEX 01 31:14:52
TRACK 09 AUDIO
TITLE "Circles Of Dawn"
PERFORMER "Zeno"
INDEX 00 36:31:40
INDEX 01 36:31:65
TRACK 10 AUDIO
TITLE "Sent By Heaven"
PERFORMER "Zeno"
INDEX 00 40:28:10
INDEX 01 40:29:00
TRACK 11 AUDIO
TITLE "Sunset"
PERFORMER "Zeno"
INDEX 00 45:19:52
INDEX 01 45:22:12


"Лог"
Exact Audio Copy V0.99 prebeta 5 from 4. May 2009

Отчёт EAC об извлечении, выполненном 31. августа 2010, 22:39

Zeno / Zeno [TOCP-8051]

Дисковод: MATSHITADVD-RAM UJ-850S Adapter: 0 ID: 0

Режим чтения : Достоверность
Использование точного потока : Да
Отключение кэша аудио : Да
Использование указателей C2 : Нет

Коррекция смещения при чтении : 102
Способность читать области Lead-in и Lead-out : Нет
Заполнение пропущенных сэмплов тишиной : Да
Удаление блоков с тишиной в начале и конце : Нет
При вычислениях CRC использовались нулевые сэмплы : Да
Интерфейс : Установленный внешний ASPI-интерфейс

Выходной формат : Пользовательский кодировщик
Выбранный битрейт : 128 kBit/s
Качество : Высокий
Добавление ID3-тэга : Нет
Утилита сжатия : C:\Program Files\Exact Audio Copy\Flac\flac.exe
Дополнительные параметры : -6 -V -T "artist=%a" -T "title=%t" -T "album=%g" -T "date=%y" -T "tracknumber=%n" -T "genre=%m" -T "comment=EAC 0.99beta5 / FLAC 1.1.0 q6" %s


TOC извлечённого CD

Трек | Старт | Длительность | Начальный сектор | Конечный сектор
---------------------------------------------------------------------
1 | 0:00.00 | 4:47.20 | 0 | 21544
2 | 4:47.20 | 3:51.45 | 21545 | 38914
3 | 8:38.65 | 4:44.05 | 38915 | 60219
4 | 13:22.70 | 3:59.17 | 60220 | 78161
5 | 17:22.12 | 4:37.13 | 78162 | 98949
6 | 21:59.25 | 3:01.07 | 98950 | 112531
7 | 25:00.32 | 6:14.20 | 112532 | 140601
8 | 31:14.52 | 5:17.13 | 140602 | 164389
9 | 36:31.65 | 3:57.10 | 164390 | 182174
10 | 40:29.00 | 4:53.12 | 182175 | 204161
11 | 45:22.12 | 0:34.30 | 204162 | 206741


Характеристики диапазона извлечения и сообщения об ошибках

Выбранный диапазон

Имя файла Y:\Музыка\Zeno\1986 Zeno\Zeno - Zeno [TOCP-8051].wav

Пиковый уровень 97.7 %
Качество диапазона 100.0 %
CRC копии 26299BF1
Копирование... OK

Ошибок не произошло


AccurateRip: сводка

Трек 1 нет в базе данных
Трек 2 нет в базе данных
Трек 3 нет в базе данных
Трек 4 нет в базе данных
Трек 5 нет в базе данных
Трек 6 нет в базе данных
Трек 7 нет в базе данных
Трек 8 нет в базе данных
Трек 9 нет в базе данных
Трек 10 нет в базе данных
Трек 11 нет в базе данных

Ни одного трека нет в базе AccurateRip

Конец отчёта


Состав:

Michael Flexig: Vocals
Zeno Roth: Guitars & Backing Vocals
U. Winsomie Ritgen: Bass & Backing Vocals
Chuck Burgi: Drums
Stuart Elliott: Drums
Rudy Kae: Drums
Don Airey: Keyboards
Carl Marsh: Keyboards
Chris Thompson: Backing Vocals
David Austin: Backing Vocals
Martin Jay: Backing Vocals
John Quist: Backing Vocals

TOCP-8051

_________________
Витасу до Даймонда как Алсу до Руссоса | При переразмещении - спрашивать разрешение!!


Top
 Profile  
 
 
PostPosted: 04 Sep 2010 
Персональный статус
Joined: 14 May 2010
Posts: 236
Age: 36
Name: Денис
спасибо! хороший альбом.

Chuck Burgi - кажется в Rainbow барабанил.
Don Airey - где только не играл. :)


Top
 Profile  
 
 
PostPosted: 04 Sep 2010 
ыыыы
User avatar
Joined: 17 May 2009
Posts: 952
Lоcаtion: Пушкино, МО
Age: 39
Name: Дмитрий
Именно так ))

_________________
Витасу до Даймонда как Алсу до Руссоса | При переразмещении - спрашивать разрешение!!


Top
 Profile  
 
 
PostPosted: 05 Sep 2010 
Хиппей (support team)
User avatar
Joined: 30 Jul 2007
Posts: 103491
Lоcаtion: Киев (Kyiv, UA)
Age: 44
Name: Andrey
Дима, спасибо! :thanx:
До сих пор не слушал этот проэкт... :oops:

_________________


Top
 Profile E-mail  
 
Display posts from previous:  Sort by  
Post new topic Reply to topic  [ 4 posts ] 

All times are UTC + 3 hours


Who is online

Users browsing this forum: No registered users and 2 guests


You cannot post new topics in this forum
You cannot reply to topics in this forum
You cannot edit your posts in this forum
You cannot delete your posts in this forum
You cannot post attachments in this forum

Search for:
Яндекс.Метрика
Powered by phpBB © 2000, 2002, 2005, 2007 phpBB Group