\m/ 80's metal \m/

Информационно-аналитический форум "80 см пыли" (In Search We Trust) "У нас никто никуда не спешит"
Железнодорожная биржа - RailAgent
It is currently 17 Aug 2018

All times are UTC + 3 hours

Spoiler
Chat - temporary registration for foreign users (please leave your application here)







Post new topic Reply to topic  [ 46 posts ]  Go to page 1, 2, 3  Next
Author Message
 
PostPosted: 01 Jul 2010 
Прокъмитолист
User avatar
Joined: 12 Aug 2007
Posts: 6447
Lоcаtion: Санктъ-Петербуркъ
Age: 50
Name: Олекъ
Z-Lot-Z [1995] Tearing At Your Mind
Self-released

Image

Genre: heavy/progressive metal
Country: USA
Contents: flac/cue/log/covers
Size: 257 MB

Tracklist:
01. Tearing At Your Mind
02. Power Of One
03. Follow Me
04. In The Morning
05. Living For Today
06. Eye Of The Beholder
07. Loaded Gun
08. 6 Feet Under

Playtime: 37:52

Lineup:
Tom Calandra - vocals and keyboards
Eric Halpern - guitars
Greg Gill - guitars, keyboards and backing vocals
Shane DuBose - bass and backing vocals
Van Eric Turner - drums
******
Adam Rawlings - sampling

EAC log
Code:
Exact Audio Copy V0.99 prebeta 5 from 4. May 2009

EAC Auslese-Logdatei vom 28. Juni 2010, 17:33

Z-Lot_Z / Tearing At Your Mind

Benutztes Laufwerk : HL-DT-STDVDRAM GH20NS15   Adapter: 1  ID: 0

Lesemodus                      : Sicher
Benutze Accurate Stream        : Ja
Audio Puffer abgeschaltet      : Nein
Benutze C2 Fehlerinformationen : Nein

Leseoffset Korrektur                           : 667
Ьberlesen in das Lead-In und Lead-Out          : Nein
Fьlle fehlende Offsetsample mit Stille auf     : Ja
Lцsche fьhrende und nachfolgende stille Blцcke : Nein
Null Samples gehen in CRC Berechnungen ein     : Nein
Benutzte Schnittstelle                         : Natьrliche Win32 Schnittstelle fьr Win NT/2000/XP

Benutztes Ausgabeformat            : Benutzerdefinierter Komprimierer
Gewдhlte Bitrate                   : 896 kBit/s
Qualitдt                           : Hoch
Fьge ID3 Tag hinzu                 : Ja
Kommandozeilen Komprimierer        : C:\Programme\Exact Audio Copy\FLAC\FLAC.EXE
Zusдtzliche Kommandozeilenoptionen : -6 -V -T "ARTIST=%a" -T "TITLE=%t" -T "ALBUM=%g" -T "DATE=%y" -T "TRACKNUMBER=%n" -T "GENRE=%m" -T "COMMENT=%e" %s -o %d


TOC der ausgelesenen CD

     Track |   Start  |   Lдnge  | Startsektor | Endsektor
    -------------------------------------------------------
        1  |  0:00.00 |  4:49.42 |        0    |   21716   
        2  |  4:49.42 |  4:35.18 |    21717    |   42359   
        3  |  9:24.60 |  5:34.32 |    42360    |   67441   
        4  | 14:59.17 |  4:54.05 |    67442    |   89496   
        5  | 19:53.22 |  3:42.73 |    89497    |  106219   
        6  | 23:36.20 |  5:39.05 |   106220    |  131649   
        7  | 29:15.25 |  5:21.20 |   131650    |  155744   
        8  | 34:36.45 |  3:15.67 |   155745    |  170436   


Bereichsstatus und Fehler

Gewдhlter Bereich

     Dateiname F:\EAC FLAC\Z_LOT_Z_Tearing at your mind  by HV\Z-Lot_Z - Tearing At Your Mind.wav

     Spitzenpegel 94.3 %
     Bereichsqualitдt 100.0 %
     Kopie CRC A857DD15
     Kopie OK

Keine Fehler aufgetreten


AccurateRip Ьbersicht

Track  1  nicht in Datenbank enthalten
Track  2  nicht in Datenbank enthalten
Track  3  nicht in Datenbank enthalten
Track  4  nicht in Datenbank enthalten
Track  5  nicht in Datenbank enthalten
Track  6  nicht in Datenbank enthalten
Track  7  nicht in Datenbank enthalten
Track  8  nicht in Datenbank enthalten

Keiner der Tracks ist in der AccurateRip Datenbank vorhanden

Ende des Statusreports

Выполняю еще одну просьбу Павла hawkhunter. Огромное спасибо немецкому коллеге herbergsvater, который не только заново рипнул и залил этот альбом, но также любезно разрешил разместить здесь его ссылку :thanx: :drink:

_________________
прокъметол - это музыко, от которово есть прок (ы)


Last edited by spiralarch on 15 Jul 2013, edited 2 times in total.

Top
 Profile  
 
 
PostPosted: 01 Jul 2010 
Я набрал 1000 сообщений!
User avatar
Joined: 25 Dec 2008
Posts: 1545
Age: 42
Name: Павел
Ай да Олег!Вот спасибище! :true: :dance:


Top
 Profile  
 
 
PostPosted: 01 Jul 2010 
Прокъмитолист
User avatar
Joined: 12 Aug 2007
Posts: 6447
Lоcаtion: Санктъ-Петербуркъ
Age: 50
Name: Олекъ
Паш, у меня еще есть следующий, 98-й. если нужен - свистни ;)

_________________
прокъметол - это музыко, от которово есть прок (ы)


Top
 Profile  
 
 
PostPosted: 01 Jul 2010 
Я набрал 1000 сообщений!
User avatar
Joined: 25 Dec 2008
Posts: 1545
Age: 42
Name: Павел
Олег,у меня остальные альбомы есть,в том числе миник 92 года.Он случаем не нужен?


Top
 Profile  
 
 
PostPosted: 01 Jul 2010 
Прокъмитолист
User avatar
Joined: 12 Aug 2007
Posts: 6447
Lоcаtion: Санктъ-Петербуркъ
Age: 50
Name: Олекъ
от миника не откажусь :dance:

_________________
прокъметол - это музыко, от которово есть прок (ы)


Top
 Profile  
 
 
PostPosted: 01 Jul 2010 
Я набрал 1000 сообщений!
User avatar
Joined: 25 Dec 2008
Posts: 1545
Age: 42
Name: Павел
Не вопрос-сделаем!Кстати,на минике они нарезают пауэр-метал,и если я не ошибаюсь,без прога. :umnik:


Top
 Profile  
 
 
PostPosted: 01 Jul 2010 
Прокъмитолист
User avatar
Joined: 12 Aug 2007
Posts: 6447
Lоcаtion: Санктъ-Петербуркъ
Age: 50
Name: Олекъ
я тут порылся, когда пост делал: оказывается было переиздание этого альбома с миником в качестве бонуса. надо бы наверно поискать такой сидюк :oops:

_________________
прокъметол - это музыко, от которово есть прок (ы)


Top
 Profile  
 
 
PostPosted: 01 Jul 2010 
Я набрал 1000 сообщений!
User avatar
Joined: 25 Dec 2008
Posts: 1545
Age: 42
Name: Павел
Ты вроде в инет-магазинах не отовариваешься,а то показал бы,где можно взять. :umnik:


Top
 Profile  
 
 
PostPosted: 01 Jul 2010 
Прокъмитолист
User avatar
Joined: 12 Aug 2007
Posts: 6447
Lоcаtion: Санктъ-Петербуркъ
Age: 50
Name: Олекъ
конечно, покажи. может закажу через друзей :oops:
но миник пока все равно пригодится :losik:

_________________
прокъметол - это музыко, от которово есть прок (ы)


Top
 Profile  
 
 
PostPosted: 01 Jul 2010 
Я набрал 1000 сообщений!
User avatar
Joined: 25 Dec 2008
Posts: 1545
Age: 42
Name: Павел
Здесь:
http://metalmayhem.com/


Top
 Profile  
 
 
PostPosted: 01 Jul 2010 
адын фелософъ прокметолу
User avatar
Joined: 22 Oct 2009
Posts: 2687
Lоcаtion: Сочи
Age: 41
Name: Сергей
Классная группа, Спасибо :thanx: А есть альбомы с Крисом Салинасом?

_________________
А теперь ... клоунов и стриптизёрш!


Top
 Profile E-mail  
 
 
PostPosted: 01 Jul 2010 
адын фелософъ прокметолу
User avatar
Joined: 22 Oct 2009
Posts: 2687
Lоcаtion: Сочи
Age: 41
Name: Сергей
spiralarch wrote:
Паш, у меня еще есть следующий, 98-й. если нужен - свистни

Нужен, и миник тоже :losik:

_________________
А теперь ... клоунов и стриптизёрш!


Top
 Profile E-mail  
 
 
PostPosted: 04 Jul 2010 
труъ антисионист
User avatar
Joined: 01 Aug 2007
Posts: 4541
Lоcаtion: Откуда и большинство из нас
Age: 37
Name: Дядя Вова
Спасибо, а мне наверное всё нужно :crazy: :losik:

_________________
Image
Image


Top
 Profile  
 
 
PostPosted: 12 Jul 2010 
Я набрал 1000 сообщений!
User avatar
Joined: 25 Dec 2008
Posts: 1545
Age: 42
Name: Павел
Z-LOT-Z -92(EP)
Country:USA
Genre:Heavy Metal
Year:1992
Format:APE+cue+covers
Size:225Mb

Image
cue
PERFORMER "Z Lot Z"
TITLE "Z Lot Z"
FILE "Z-Lot-Z - 1992 - Z-Lot-Z.ape" WAVE
TRACK 01 AUDIO
TITLE "The Shadow"
PERFORMER "Z Lot Z"
INDEX 01 00:00:00
TRACK 02 AUDIO
TITLE "Who's The Believer"
PERFORMER "Z Lot Z"
INDEX 01 04:21:04
TRACK 03 AUDIO
TITLE "The Road To Nowhere"
PERFORMER "Z Lot Z"
INDEX 01 09:38:49
TRACK 04 AUDIO
TITLE "Lonely Is The Hunter"
PERFORMER "Z Lot Z"
INDEX 01 13:04:58
TRACK 05 AUDIO
TITLE "Shelter"
PERFORMER "Z Lot Z"
INDEX 01 17:39:71
TRACK 06 AUDIO
TITLE "In My Heart"
PERFORMER "Z Lot Z"
INDEX 01 25:11:54

Tracklist:
1.The Shadow 04:21
2.Who's The Believer 05:17
3.Road To Nowhere 03:26
4.Lonely Is The Hunter 04:35
5.Shelter 07:31
6.In My Heart 03:38

Убойная вещь!
Рип не мой-поэтому без лога.
Z-Lot-Z - 1992 - Z-Lot-Z.rar


Top
 Profile  
 
 
PostPosted: 12 Jul 2010 
Прокъмитолист
User avatar
Joined: 12 Aug 2007
Posts: 6447
Lоcаtion: Санктъ-Петербуркъ
Age: 50
Name: Олекъ
:true: :thanx: :true:

_________________
прокъметол - это музыко, от которово есть прок (ы)


Top
 Profile  
 
 
PostPosted: 12 Jul 2010 
Хиппей (support team)
User avatar
Joined: 30 Jul 2007
Posts: 105647
Lоcаtion: Киев (Kyiv, UA)
Age: 45
Name: Andrey
Паша, спасибо! :thanx:

Хм, а вот как Круцибле они так ничо и не издали, шоле? :vic:

_________________


Top
 Profile E-mail  
 
 
PostPosted: 12 Jul 2010 
Я набрал 1000 сообщений!
User avatar
Joined: 25 Dec 2008
Posts: 1545
Age: 42
Name: Павел
На myspace есть пара новых трэков-весьма неплохо.Там же они пишут,что требуется ударник. :umnik:


Top
 Profile  
 
 
PostPosted: 12 Jul 2010 
Хиппей (support team)
User avatar
Joined: 30 Jul 2007
Posts: 105647
Lоcаtion: Киев (Kyiv, UA)
Age: 45
Name: Andrey
А на официальном (обычном сайте) уже почти год висит объява, что выходит новый альбом :umnik:

_________________


Top
 Profile E-mail  
 
 
PostPosted: 12 Jul 2010 
Я набрал 1000 сообщений!
User avatar
Joined: 25 Dec 2008
Posts: 1545
Age: 42
Name: Павел
Что-то я не нашел там такой информации-анонсы выступления на разных метал-фестах и все.


Top
 Profile  
 
 
PostPosted: 13 Jul 2010 
Хиппей (support team)
User avatar
Joined: 30 Jul 2007
Posts: 105647
Lоcаtion: Киев (Kyiv, UA)
Age: 45
Name: Andrey
Quote:
FOR IMMEDIATE RELEASE (January 11, 2009)

http://www.krucibleband.com

_________________


Top
 Profile E-mail  
 
Display posts from previous:  Sort by  
Post new topic Reply to topic  [ 46 posts ]  Go to page 1, 2, 3  Next

All times are UTC + 3 hours


Who is online

Users browsing this forum: No registered users and 1 guest


You cannot post new topics in this forum
You cannot reply to topics in this forum
You cannot edit your posts in this forum
You cannot delete your posts in this forum
You cannot post attachments in this forum

Search for:
Яндекс.Метрика
Powered by phpBB © 2000, 2002, 2005, 2007 phpBB Group