\m/ 80's metal \m/

Информационно-аналитический форум "80 см пыли" (In Search We Trust) "У нас никто никуда не спешит"
Железнодорожная биржа - RailAgent
It is currently 17 Aug 2018

All times are UTC + 3 hours

Spoiler
Chat - temporary registration for foreign users (please leave your application here)







Post new topic Reply to topic  [ 21 posts ]  Go to page Previous  1, 2
Author Message
 
PostPosted: 26 Nov 2009 
Генеральный thrasher
User avatar
Joined: 03 Oct 2008
Posts: 3422
Lоcаtion: Ханты-Мансийский АО
Age: 43
Name: Сергей
Image

Album: All Hail To Thee & Kick 'em When They're Down & Live Suicide
Year: 2007
Style: Speed Metal
Country: U.S.A.
Label: Metal Mind
Format: Flac tracks+Cue+Log
Size: 401Mb

Tracklist:
01. Sledgehammer 01:54
02. Saturday Night 01:44
03. Somethin' for Nothin' 02:34
04. Bringin' the Hammer Down 02:44
05. Do or Die 01:37
06. Never Felt Like This 03:48
07. Rock City Destination 02:38
08. Live for the Weekend 01:26
09. All Hail to Thee 03:12
10. Run Like the Wind 04:23
11. Too Late 02:13
12. Turn Up the Pain 05:25
13. Hell Bent 01:52
14. Bringin' the Hammer Down 02:33
15. There's No Tomorrow 03:31
16. Too Late 02:16
17. Rock City Destination 06:33
18. Night on Parole 00:55
19. Rest in Peace 05:58

Cue
REM GENRE "Thrash Metal"
REM DATE 1983
REM DISCID E70D5B13
REM COMMENT "ExactAudioCopy v0.95b4"
PERFORMER "Znowhite"
TITLE "EP Collection (2007 Remaster)"
FILE "Znowhite - EP Collection (2007 Remaster) - 01 - Sledgehammer (All Hail To Thee).wav" WAVE
TRACK 01 AUDIO
TITLE "Sledgehammer (All Hail To Thee)"
PERFORMER "Znowhite"
ISRC PLA640702972
INDEX 01 00:00:00
TRACK 02 AUDIO
TITLE "Saturday Night (All Hail To Thee)"
PERFORMER "Znowhite"
ISRC PLA640702973
FLAGS DCP
INDEX 00 01:50:30
FILE "Znowhite - EP Collection (2007 Remaster) - 02 - Saturday Night (All Hail To Thee).wav" WAVE
INDEX 01 00:00:00
TRACK 03 AUDIO
TITLE "Somethin' For Nothin' (All Hail To Thee)"
PERFORMER "Znowhite"
ISRC PLA640702974
FLAGS DCP
INDEX 00 01:40:18
FILE "Znowhite - EP Collection (2007 Remaster) - 03 - Somethin' For Nothin' (All Hail To Thee).wav" WAVE
INDEX 01 00:00:00
TRACK 04 AUDIO
TITLE "Bringin' The Hammer Down (All Hail To Thee)"
PERFORMER "Znowhite"
ISRC PLA640702975
FLAGS DCP
INDEX 00 02:30:55
FILE "Znowhite - EP Collection (2007 Remaster) - 04 - Bringin' The Hammer Down (All Hail To Thee).wav" WAVE
INDEX 01 00:00:00
TRACK 05 AUDIO
TITLE "Do Or Die (All Hail To Thee)"
PERFORMER "Znowhite"
ISRC PLA640702976
FLAGS DCP
INDEX 00 02:40:52
FILE "Znowhite - EP Collection (2007 Remaster) - 05 - Do Or Die (All Hail To Thee).wav" WAVE
INDEX 01 00:00:00
TRACK 06 AUDIO
TITLE "Never Felt Like This (All Hail To Thee)"
PERFORMER "Znowhite"
ISRC PLA640702977
FLAGS DCP
INDEX 00 01:33:60
FILE "Znowhite - EP Collection (2007 Remaster) - 06 - Never Felt Like This (All Hail To Thee).wav" WAVE
INDEX 01 00:00:00
TRACK 07 AUDIO
TITLE "Rock City Destination (All Hail To Thee)"
PERFORMER "Znowhite"
ISRC PLA640702978
FLAGS DCP
INDEX 00 03:45:03
FILE "Znowhite - EP Collection (2007 Remaster) - 07 - Rock City Destination (All Hail To Thee).wav" WAVE
INDEX 01 00:00:00
TRACK 08 AUDIO
TITLE "Live For The Weekend (Kick 'Em When They're Down)"
PERFORMER "Znowhite"
ISRC PLA640702978
FLAGS DCP
INDEX 00 02:24:42
FILE "Znowhite - EP Collection (2007 Remaster) - 08 - Live For The Weekend (Kick 'Em When They're Down).wav" WAVE
INDEX 01 00:00:00
TRACK 09 AUDIO
TITLE "All Hail To Thee (Kick 'Em When They're Down)"
PERFORMER "Znowhite"
ISRC PLA640702980
FLAGS DCP
INDEX 00 01:23:65
FILE "Znowhite - EP Collection (2007 Remaster) - 09 - All Hail To Thee (Kick 'Em When They're Down).wav" WAVE
INDEX 01 00:00:00
TRACK 10 AUDIO
TITLE "Run Like The Wind (Kick 'Em When They're Down)"
PERFORMER "Znowhite"
ISRC PLA640702981
FLAGS DCP
INDEX 00 03:07:35
FILE "Znowhite - EP Collection (2007 Remaster) - 10 - Run Like The Wind (Kick 'Em When They're Down).wav" WAVE
INDEX 01 00:00:00
TRACK 11 AUDIO
TITLE "Too Late (Kick 'Em When They're Down)"
PERFORMER "Znowhite"
ISRC PLA640702982
FLAGS DCP
INDEX 00 04:21:05
FILE "Znowhite - EP Collection (2007 Remaster) - 11 - Too Late (Kick 'Em When They're Down).wav" WAVE
INDEX 01 00:00:00
TRACK 12 AUDIO
TITLE "Turn Up The Pain (Kick 'Em When They're Down)"
PERFORMER "Znowhite"
ISRC PLA640702983
FLAGS DCP
INDEX 00 02:11:58
FILE "Znowhite - EP Collection (2007 Remaster) - 12 - Turn Up The Pain (Kick 'Em When They're Down).wav" WAVE
INDEX 01 00:00:00
TRACK 13 AUDIO
TITLE "Hellbent (Live Suicide)"
PERFORMER "Znowhite"
ISRC PLA640702984
FLAGS DCP
INDEX 00 05:21:27
FILE "Znowhite - EP Collection (2007 Remaster) - 13 - Hellbent (Live Suicide).wav" WAVE
INDEX 01 00:00:00
TRACK 14 AUDIO
TITLE "Bringin' The Hammer Down (Live Suicide)"
PERFORMER "Znowhite"
ISRC PLA640702985
FLAGS DCP
INDEX 00 01:48:10
FILE "Znowhite - EP Collection (2007 Remaster) - 14 - Bringin' The Hammer Down (Live Suicide).wav" WAVE
INDEX 01 00:00:00
TRACK 15 AUDIO
TITLE "There's No Tomorrow (Live Suicide)"
PERFORMER "Znowhite"
ISRC PLA640702986
FLAGS DCP
INDEX 00 02:25:11
FILE "Znowhite - EP Collection (2007 Remaster) - 15 - There's No Tomorrow (Live Suicide).wav" WAVE
INDEX 01 00:00:00
TRACK 16 AUDIO
TITLE "Too Late (Live Suicide)"
PERFORMER "Znowhite"
ISRC PLA640702987
FLAGS DCP
INDEX 00 03:25:10
FILE "Znowhite - EP Collection (2007 Remaster) - 16 - Too Late (Live Suicide).wav" WAVE
INDEX 01 00:00:00
TRACK 17 AUDIO
TITLE "Rock City Destination (Live Suicide)"
PERFORMER "Znowhite"
ISRC PLA640702988
FLAGS DCP
INDEX 00 02:12:10
FILE "Znowhite - EP Collection (2007 Remaster) - 17 - Rock City Destination (Live Suicide).wav" WAVE
INDEX 01 00:00:00
TRACK 18 AUDIO
TITLE "Night On Parole (Live Suicide)"
PERFORMER "Znowhite"
ISRC PLA640702988
FLAGS DCP
INDEX 00 02:52:01
FILE "Znowhite - EP Collection (2007 Remaster) - 18 - Night On Parole (Live Suicide).wav" WAVE
INDEX 01 00:00:00
TRACK 19 AUDIO
TITLE "Rest In Peace (Live Suicide)"
PERFORMER "Znowhite"
ISRC PLA640702990
FLAGS DCP
INDEX 00 03:27:20
FILE "Znowhite - EP Collection (2007 Remaster) - 19 - Rest In Peace (Live Suicide).wav" WAVE
INDEX 01 00:00:00


Log
EAC extraction logfile from 21. September 2007, 22:54 for CD
Znowhite / EP Collection (2007 Remaster)

Used drive : BENQ DVD DD DW1620 Adapter: 1 ID: 0
Read mode : Secure with NO C2, accurate stream, NO disable cache
Read offset correction : 618
Overread into Lead-In and Lead-Out : No

Used output format : Internal WAV Routines
44.100 Hz; 16 Bit; Stereo

Other options :
Fill up missing offset samples with silence : Yes
Delete leading and trailing silent blocks : No
Installed external ASPI interface


Track 1
Filename C:\Documents and Settings\Soylent Green\Desktop\New Folder\EAC Files\Znowhite - EP Collection (2007 Remaster) - 01 - Sledgehammer (All Hail To Thee).wav

Pre-gap length 0:00:02.00

Peak level 99.5 %
Track quality 100.0 %
Test CRC 945ABFE2
Copy CRC 945ABFE2
Copy OK

Track 2
Filename C:\Documents and Settings\Soylent Green\Desktop\New Folder\EAC Files\Znowhite - EP Collection (2007 Remaster) - 02 - Saturday Night (All Hail To Thee).wav

Pre-gap length 0:00:03.65

Peak level 99.5 %
Track quality 100.0 %
Test CRC EB0BE1B3
Copy CRC EB0BE1B3
Copy OK

Track 3
Filename C:\Documents and Settings\Soylent Green\Desktop\New Folder\EAC Files\Znowhite - EP Collection (2007 Remaster) - 03 - Somethin' For Nothin' (All Hail To Thee).wav

Pre-gap length 0:00:03.65

Peak level 99.5 %
Track quality 100.0 %
Test CRC 99547471
Copy CRC 99547471
Copy OK

Track 4
Filename C:\Documents and Settings\Soylent Green\Desktop\New Folder\EAC Files\Znowhite - EP Collection (2007 Remaster) - 04 - Bringin' The Hammer Down (All Hail To Thee).wav

Pre-gap length 0:00:03.65

Peak level 99.5 %
Track quality 100.0 %
Test CRC ADFAEB46
Copy CRC ADFAEB46
Copy OK

Track 5
Filename C:\Documents and Settings\Soylent Green\Desktop\New Folder\EAC Files\Znowhite - EP Collection (2007 Remaster) - 05 - Do Or Die (All Hail To Thee).wav

Pre-gap length 0:00:03.65

Peak level 99.5 %
Track quality 100.0 %
Test CRC A2B05A77
Copy CRC A2B05A77
Copy OK

Track 6
Filename C:\Documents and Settings\Soylent Green\Desktop\New Folder\EAC Files\Znowhite - EP Collection (2007 Remaster) - 06 - Never Felt Like This (All Hail To Thee).wav

Pre-gap length 0:00:03.65

Peak level 99.5 %
Track quality 100.0 %
Test CRC 4F6C0277
Copy CRC 4F6C0277
Copy OK

Track 7
Filename C:\Documents and Settings\Soylent Green\Desktop\New Folder\EAC Files\Znowhite - EP Collection (2007 Remaster) - 07 - Rock City Destination (All Hail To Thee).wav

Pre-gap length 0:00:03.65

Peak level 99.5 %
Track quality 99.9 %
Test CRC E80992CB
Copy CRC E80992CB
Copy OK

Track 8
Filename C:\Documents and Settings\Soylent Green\Desktop\New Folder\EAC Files\Znowhite - EP Collection (2007 Remaster) - 08 - Live For The Weekend (Kick 'Em When They're Down).wav

Pre-gap length 0:00:03.65

Peak level 99.5 %
Track quality 100.0 %
Test CRC 4598C58E
Copy CRC 4598C58E
Copy OK

Track 9
Filename C:\Documents and Settings\Soylent Green\Desktop\New Folder\EAC Files\Znowhite - EP Collection (2007 Remaster) - 09 - All Hail To Thee (Kick 'Em When They're Down).wav

Pre-gap length 0:00:03.65

Peak level 99.5 %
Track quality 100.0 %
Test CRC 9BAB7279
Copy CRC 9BAB7279
Copy OK

Track 10
Filename C:\Documents and Settings\Soylent Green\Desktop\New Folder\EAC Files\Znowhite - EP Collection (2007 Remaster) - 10 - Run Like The Wind (Kick 'Em When They're Down).wav

Pre-gap length 0:00:03.65

Peak level 99.5 %
Track quality 100.0 %
Test CRC 9E2E3CE1
Copy CRC 9E2E3CE1
Copy OK

Track 11
Filename C:\Documents and Settings\Soylent Green\Desktop\New Folder\EAC Files\Znowhite - EP Collection (2007 Remaster) - 11 - Too Late (Kick 'Em When They're Down).wav

Pre-gap length 0:00:03.65

Peak level 99.5 %
Track quality 100.0 %
Test CRC 3D3CDB6F
Copy CRC 3D3CDB6F
Copy OK

Track 12
Filename C:\Documents and Settings\Soylent Green\Desktop\New Folder\EAC Files\Znowhite - EP Collection (2007 Remaster) - 12 - Turn Up The Pain (Kick 'Em When They're Down).wav

Pre-gap length 0:00:03.65

Peak level 99.5 %
Track quality 100.0 %
Test CRC F0FA62F4
Copy CRC F0FA62F4
Copy OK

Track 13
Filename C:\Documents and Settings\Soylent Green\Desktop\New Folder\EAC Files\Znowhite - EP Collection (2007 Remaster) - 13 - Hellbent (Live Suicide).wav

Pre-gap length 0:00:03.65

Peak level 99.5 %
Track quality 100.0 %
Test CRC DA1D73D3
Copy CRC DA1D73D3
Copy OK

Track 14
Filename C:\Documents and Settings\Soylent Green\Desktop\New Folder\EAC Files\Znowhite - EP Collection (2007 Remaster) - 14 - Bringin' The Hammer Down (Live Suicide).wav

Pre-gap length 0:00:03.65

Peak level 99.5 %
Track quality 100.0 %
Test CRC 4266908F
Copy CRC 4266908F
Copy OK

Track 15
Filename C:\Documents and Settings\Soylent Green\Desktop\New Folder\EAC Files\Znowhite - EP Collection (2007 Remaster) - 15 - There's No Tomorrow (Live Suicide).wav

Pre-gap length 0:00:03.65

Peak level 99.5 %
Track quality 100.0 %
Test CRC 4205FF02
Copy CRC 4205FF02
Copy OK

Track 16
Filename C:\Documents and Settings\Soylent Green\Desktop\New Folder\EAC Files\Znowhite - EP Collection (2007 Remaster) - 16 - Too Late (Live Suicide).wav

Pre-gap length 0:00:03.65

Peak level 99.5 %
Track quality 100.0 %
Test CRC A6075CB8
Copy CRC A6075CB8
Copy OK

Track 17
Filename C:\Documents and Settings\Soylent Green\Desktop\New Folder\EAC Files\Znowhite - EP Collection (2007 Remaster) - 17 - Rock City Destination (Live Suicide).wav

Pre-gap length 0:00:03.65

Peak level 99.5 %
Track quality 100.0 %
Test CRC 3F397650
Copy CRC 3F397650
Copy OK

Track 18
Filename C:\Documents and Settings\Soylent Green\Desktop\New Folder\EAC Files\Znowhite - EP Collection (2007 Remaster) - 18 - Night On Parole (Live Suicide).wav

Pre-gap length 0:00:03.65

Peak level 99.5 %
Track quality 100.0 %
Test CRC E6BE75DD
Copy CRC E6BE75DD
Copy OK

Track 19
Filename C:\Documents and Settings\Soylent Green\Desktop\New Folder\EAC Files\Znowhite - EP Collection (2007 Remaster) - 19 - Rest In Peace (Live Suicide).wav

Pre-gap length 0:00:03.65

Peak level 99.5 %
Track quality 100.0 %
Test CRC B839216A
Copy CRC B839216A
Copy OK

No errors occured


End of status report



Megaupload


Top
 Profile  
 
 
PostPosted: 14 Aug 2011 
ТрэшЭрос
User avatar
Joined: 18 Jul 2011
Posts: 2296
Lоcаtion: Гулькевичи
Age: 43
Name: Александр
:thanx: всем...

_________________
Thrash no trash!!!


Top
 Profile E-mail  
 
Display posts from previous:  Sort by  
Post new topic Reply to topic  [ 21 posts ]  Go to page Previous  1, 2

All times are UTC + 3 hours


Who is online

Users browsing this forum: No registered users and 1 guest


You cannot post new topics in this forum
You cannot reply to topics in this forum
You cannot edit your posts in this forum
You cannot delete your posts in this forum
You cannot post attachments in this forum

Search for:
Яндекс.Метрика
Powered by phpBB © 2000, 2002, 2005, 2007 phpBB Group