\m/ 80's metal \m/

Информационно-аналитический форум "80 см пыли" (In Search We Trust) "У нас никто никуда не спешит"
Me For You - http://me-4u.com
It is currently 24 Oct 2018

All times are UTC + 3 hours

Spoiler
Chat - temporary registration for foreign users (please leave your application here)







Post new topic Reply to topic  [ 3 posts ] 
Author Message
 
PostPosted: 20 Nov 2009 
Old Time Rock`n`Roll
User avatar
Joined: 23 Jun 2008
Posts: 3356
Lоcаtion: г.Ульяновск
Age: 40
Name: Константин
The Johnny Van Zant Band – No More Dirty Deals (1980)

Image

Year: 1980
Style: Hard Rock, Melodic Rock, Southern Rock
Country: USA
Format: APE + log + cue + booklet & mp3-320
Size: 255 Mb / 87 Mb

Tracklist
01. No More Dirty Deals (5:23)
02. Coming Home (4:04)
03. 634-5789 (2:42)
04. Put My Trust In You (2:44)
05. Only The Strong Survive (3:27)
06. Hard Luck Story (3:09)
07. Stand Your Ground (3:10)
08. Never Too Late (3:33)
09. Keep On Rollin' (3:14)
10. Standing In The Darkness (4:56)

TPT – 36:56

Line-Up
Danny Clausman Bass
Erik Lundgren Guitar
Johnny Van Zant Vocals
Robbie Gay Guitar
Robbie Morris Drums

Album Credits:
Produced: Al Kooper
Engineered: Paul Grupp
Mixed: Al Kooper
Remixed: Bob Edwards/Al Kooper
Remastered: Jon Astley

Additional Players:
Al Kooper Keyboards
Paula Salvatore Slide Guitar # 1, 2
Ernie Watts Sax, Flute
Bobby LaKind Percussion
Julia Waters Tillman Backing Vocals, Fade Out Vocals # 7
Ron Hicklin Backing Vocals
John Balhler Backing Vocals
Jerry Whitman Backing Vocals
Gene Morford Backing Vocals
Marti McCall Backing Vocals
Myrna Matthews Backing Vocals
Lorna Willard Backing Vocals

Chart Position:
USA # 48

Spectres
Image

Log
Exact Audio Copy V0.99 prebeta 4 from 23. January 2008

EAC extraction logfile from 4. February 2008, 21:22

Van Zant / No More Dirty Deals

Used drive : PLEXTOR CD-R PREMIUM Adapter: 1 ID: 1

Read mode : Secure
Utilize accurate stream : Yes
Defeat audio cache : Yes
Make use of C2 pointers : No

Read offset correction : 30
Overread into Lead-In and Lead-Out : Yes
Fill up missing offset samples with silence : Yes
Delete leading and trailing silent blocks : No
Null samples used in CRC calculations : No
Used interface : Installed external ASPI interface

Used output format : User Defined Encoder
Selected bitrate : 256 kBit/s
Quality : High
Add ID3 tag : No
Command line compressor : C:\Archivos de programa\Exact Audio Copy\wavpack.exe
Additional command line options : -hm -w "Cuesheet=@*.cue" -w "Artist=%a" -w "Album=%g" -w "Year=%y" -w "Genre=%m" %s %d


TOC of the extracted CD

Track | Start | Length | Start sector | End sector
---------------------------------------------------------
1 | 0:00.00 | 5:25.34 | 0 | 24408
2 | 5:25.34 | 4:07.23 | 24409 | 42956
3 | 9:32.57 | 2:43.10 | 42957 | 55191
4 | 12:15.67 | 2:44.37 | 55192 | 67528
5 | 15:00.29 | 3:34.58 | 67529 | 83636
6 | 18:35.12 | 3:07.49 | 83637 | 97710
7 | 21:42.61 | 3:09.52 | 97711 | 111937
8 | 24:52.38 | 3:41.59 | 111938 | 128571
9 | 28:34.22 | 3:26.00 | 128572 | 144021
10 | 32:00.22 | 4:56.40 | 144022 | 166261


Range status and errors

Selected range

Filename C:\Documents and Settings\Jordi O'Rei\Escritorio\Van Zant\Van Zant - No More Dirty Deals.wav

Peak level 99.8 %
Range quality 100.0 %
Copy CRC CCBAD863
Copy OK

No errors occurred

End of status report


Cue
REM GENRE "Southern Rock"
REM DATE 2006
REM DISCID 7B08A80A
REM COMMENT "ExactAudioCopy v0.99pb4"
PERFORMER "Van Zant"
TITLE "No More Dirty Deals"
FILE "Van Zant - No More Dirty Deals.wav" WAVE
TRACK 01 AUDIO
TITLE "No More Dirty Deals"
PERFORMER "Van Zant"
FLAGS DCP
INDEX 01 00:00:00
TRACK 02 AUDIO
TITLE "Coming Home"
PERFORMER "Van Zant"
FLAGS DCP
INDEX 00 05:23:17
INDEX 01 05:25:34
TRACK 03 AUDIO
TITLE "634-5789"
PERFORMER "Van Zant"
FLAGS DCP
INDEX 00 09:28:24
INDEX 01 09:32:57
TRACK 04 AUDIO
TITLE "Put My Trust In You"
PERFORMER "Van Zant"
FLAGS DCP
INDEX 00 12:14:67
INDEX 01 12:15:67
TRACK 05 AUDIO
TITLE "Only The Strong Survive"
PERFORMER "Van Zant"
FLAGS DCP
INDEX 00 15:00:15
INDEX 01 15:00:29
TRACK 06 AUDIO
TITLE "Hard Lucky Story"
PERFORMER "Van Zant"
FLAGS DCP
INDEX 00 18:32:50
INDEX 01 18:35:12
TRACK 07 AUDIO
TITLE "Stand Your Ground"
PERFORMER "Van Zant"
FLAGS DCP
INDEX 00 21:41:74
INDEX 01 21:42:61
TRACK 08 AUDIO
TITLE "Never Too Late"
PERFORMER "Van Zant"
FLAGS DCP
INDEX 01 24:52:38
TRACK 09 AUDIO
TITLE "Keep On Rollin'"
PERFORMER "Van Zant"
FLAGS DCP
INDEX 00 28:30:65
INDEX 01 28:34:22
TRACK 10 AUDIO
TITLE "Standing In The Darkness"
PERFORMER "Van Zant"
FLAGS DCP
INDEX 00 31:54:15
INDEX 01 32:00:22


APE
narod-APE

mp3-320
megaupload-320


Основательный ремастер 2006 г. от Rock Candy дебютного альбома группы Джонни Ван Занта, младшего из братьев Ван Зант. За рип спасибо пользователю Cencerro.

Image


Top
 Profile  
 
 
PostPosted: 21 Nov 2009 
5cm
User avatar
Joined: 12 Aug 2009
Posts: 73
Name: jos
Awseome post. All his records are awesome


Top
 Profile E-mail  
 
 
PostPosted: 07 Dec 2009 
Пионэръ
Joined: 06 May 2009
Posts: 14
Name: lll22
Спасибо!!!


Top
 Profile E-mail  
 
Display posts from previous:  Sort by  
Post new topic Reply to topic  [ 3 posts ] 

All times are UTC + 3 hours


Who is online

Users browsing this forum: No registered users and 1 guest


You cannot post new topics in this forum
You cannot reply to topics in this forum
You cannot edit your posts in this forum
You cannot delete your posts in this forum
You cannot post attachments in this forum

Search for:
Яндекс.Метрика
Powered by phpBB © 2000, 2002, 2005, 2007 phpBB Group