\m/ 80's metal \m/

Информационно-аналитический форум "80 см пыли" (In Search We Trust) "У нас никто никуда не спешит"
Me For You - http://me-4u.com
It is currently 17 Dec 2018

All times are UTC + 3 hours

Spoiler
Chat - temporary registration for foreign users (please leave your application here)







Post new topic Reply to topic  [ 5 posts ] 
Author Message
 
PostPosted: 02 Nov 2009 
труъ антисионист
User avatar
Joined: 01 Aug 2007
Posts: 4541
Lоcаtion: Откуда и большинство из нас
Age: 38
Name: Дядя Вова
Image

Tracklist:

1. Freakshow 04:03
2. Love Hurts (That´s All You Gonna Learn About Life) 03:43
3. Rock This City (Pop This Town) 03:20
4. Tango Del Dolor 03:21
5. Angel 04:21
6. My World Shakin´ 03:22
7. Best Shot 04:07
8. I Can´t Let Go 03:09
9. Pretty Baby 02:38
10. Charmed Life 04:13
11. I´ve Been Lookin´ For Some Love 03:49
12. Fool For Her Love 02:00

Total playing time 42:06

_________________
Image
Image


Top
 Profile  
 
 
PostPosted: 02 Nov 2009 
Персональный статус
Joined: 06 Oct 2007
Posts: 339
Ищем, но к сожалению пока нет нигде.


Top
 Profile  
 
 
PostPosted: 26 Dec 2011 
Rara avis
User avatar
Joined: 27 Jan 2009
Posts: 4724
Name: .
Zero Nine - 1996 - Freakshow (flac)

Image

log
Отчёт EAC об извлечении, выполненном 11. февраля 2012, 16:48 для диска:
Unknown Artist / Unknown Title

Дисковод: TSSTcorpCDDVDW TS-L632H Adapter: 0 ID: 0
Режим чтения: Достоверный (C2: нет, Точный поток: да, Отключение кэша: да)
Коррекция смещения при чтении: 6
Способность читать области Lead-in и Lead-out : Нет

Выходной формат: Внутренние WAV-операции
44.100 Гц; 16 бит; стерео

Другие параметры:
Заполнение пропущенных сэмплов тишиной : Да
Удаление блоков с тишиной в начале и конце : Нет
Установленный внешний ASPI-интерфейс


Характеристики диапазона извлечения и сообщения об ошибках
Выбранный диапазон
Имя файла C:\Zero Nine - Freakshow.wav

Пиковый уровень 89.1 %
Качество диапазона 99.8 %
CRC AE4FAD88
Копирование... OK

Ошибок не произошло

Конец отчёта


cue
REM DISCID 9E09E30C
REM COMMENT "ExactAudioCopy v0.95b4"
PERFORMER "Unknown Artist"
TITLE "Unknown Title"
FILE "Zero Nine - Freakshow.wav" WAVE
TRACK 01 AUDIO
TITLE "Track01"
PERFORMER "Unknown Artist"
FLAGS DCP
INDEX 01 00:00:00
TRACK 02 AUDIO
TITLE "Track02"
PERFORMER "Unknown Artist"
FLAGS DCP
INDEX 00 04:02:20
INDEX 01 04:03:25
TRACK 03 AUDIO
TITLE "Track03"
PERFORMER "Unknown Artist"
FLAGS DCP
INDEX 00 07:45:55
INDEX 01 07:46:60
TRACK 04 AUDIO
TITLE "Track04"
PERFORMER "Unknown Artist"
FLAGS DCP
INDEX 00 11:06:15
INDEX 01 11:07:20
TRACK 05 AUDIO
TITLE "Track05"
PERFORMER "Unknown Artist"
FLAGS DCP
INDEX 00 14:26:70
INDEX 01 14:29:00
TRACK 06 AUDIO
TITLE "Track06"
PERFORMER "Unknown Artist"
FLAGS DCP
INDEX 00 18:49:00
INDEX 01 18:50:05
TRACK 07 AUDIO
TITLE "Track07"
PERFORMER "Unknown Artist"
FLAGS DCP
INDEX 00 22:11:63
INDEX 01 22:12:67
TRACK 08 AUDIO
TITLE "Track08"
PERFORMER "Unknown Artist"
FLAGS DCP
INDEX 00 26:19:43
INDEX 01 26:20:47
TRACK 09 AUDIO
TITLE "Track09"
PERFORMER "Unknown Artist"
FLAGS DCP
INDEX 00 29:29:35
INDEX 01 29:30:40
TRACK 10 AUDIO
TITLE "Track10"
PERFORMER "Unknown Artist"
FLAGS DCP
INDEX 00 32:07:73
INDEX 01 32:09:02
TRACK 11 AUDIO
TITLE "Track11"
PERFORMER "Unknown Artist"
FLAGS DCP
INDEX 00 36:20:70
INDEX 01 36:22:00
TRACK 12 AUDIO
TITLE "Track12"
PERFORMER "Unknown Artist"
FLAGS DCP
INDEX 00 40:10:30
INDEX 01 40:11:35


spectrum
Image



322.01 Мб - http://ifolder.ru/28709581


Top
 Profile E-mail  
 
 
PostPosted: 15 Feb 2012 
Хиппей (support team)
User avatar
Joined: 30 Jul 2007
Posts: 108957
Lоcаtion: Киев (Kyiv, UA)
Age: 45
Name: Andrey
Урря :thanx: :true:

mirror: Speedy l Narod

_________________


Top
 Profile E-mail  
 
 
PostPosted: 15 Feb 2012 
Персональный статус
User avatar
Joined: 29 Sep 2009
Posts: 271
Lоcаtion: Надым
Age: 40
Name: Виталий
Шикарно! :true: Дарья, спасибо!


Top
 Profile E-mail  
 
Display posts from previous:  Sort by  
Post new topic Reply to topic  [ 5 posts ] 

All times are UTC + 3 hours


Who is online

Users browsing this forum: No registered users and 1 guest


You cannot post new topics in this forum
You cannot reply to topics in this forum
You cannot edit your posts in this forum
You cannot delete your posts in this forum
You cannot post attachments in this forum

Search for:
Яндекс.Метрика
Powered by phpBB © 2000, 2002, 2005, 2007 phpBB Group