\m/ 80's metal \m/

Информационно-аналитический форум "80 см пыли" (In Search We Trust) "У нас никто никуда не спешит"
Железнодорожная биржа - RailAgent
It is currently 16 Jul 2018

All times are UTC + 3 hours

Spoiler
Chat - temporary registration for foreign users (please leave your application here)







Post new topic Reply to topic  [ 10 posts ] 
Author Message
 
PostPosted: 04 Jul 2009 
Old Time Rock`n`Roll
User avatar
Joined: 23 Jun 2008
Posts: 3342
Lоcаtion: г.Ульяновск
Age: 39
Name: Константин
Zero Nine – Headline (1984)

Image

Genre: Hard Rock
Country: Finland
Format: APE, cue+log+сканы & mp@320
Size: 251.0 Mb + 82.0 Mb

Tracklist
01. Magic Dream (3:10)
02. Run To The Light (4:06)
03. Seven Days Of Love (3:29)
04. Walk Away (4:04)
05. I Wanna Give You My Love (3:25)
06. Queen Of The Ocean Drive (4:35)
07. Lyin' In The Dark (3:37)
08. Under The Sun (3:37)
09. Hit The Headline (6:03)

TPT – 36:07

Line-Up:
Borno Korpela Drums
Elmo Harju Bass
Iro Murtola Keyboards
Iso-T Käsmä Guitars
Kepa Salmirinne Vocals
Mara Mäntyniemi Guitars

Спектры

Image

Лог
Exact Audio Copy V0.99 prebeta 4 from 23. January 2008

Отчёт EAC об извлечении, выполненном 12. мая 2009, 23:21

Zero Nine / Headline

Дисковод: Optiarc DVD RW AD-7200A Adapter: 5 ID: 0

Режим чтения : Достоверность
Использование точного потока : Да
Отключение кэша аудио : Да
Использование указателей C2 : Нет

Коррекция смещения при чтении : 48
Способность читать области Lead-in и Lead-out : Нет
Заполнение пропущенных сэмплов тишиной : Да
Удаление блоков с тишиной в начале и конце : Нет
При вычислениях CRC использовались нулевые сэмплы : Да
Интерфейс : Встроенный Win32-интерфейс для Win NT/2000

Выходной формат : Внутренние WAV-операции
Формат сэмплов : 44.100 Гц; 16 бит; стерео


TOC извлечённого CD

Трек | Старт | Длительность | Начальный сектор | Конечный сектор
---------------------------------------------------------------------
1 | 0:00.00 | 3:10.24 | 0 | 14273
2 | 3:10.24 | 4:06.21 | 14274 | 32744
3 | 7:16.45 | 3:28.42 | 32745 | 48386
4 | 10:45.12 | 4:04.29 | 48387 | 66715
5 | 14:49.41 | 3:25.26 | 66716 | 82116
6 | 18:14.67 | 4:34.67 | 82117 | 102733
7 | 22:49.59 | 3:36.66 | 102734 | 118999
8 | 26:26.50 | 3:37.19 | 119000 | 135293
9 | 30:03.69 | 6:03.30 | 135294 | 162548


Характеристики диапазона извлечения и сообщения об ошибках

Выбранный диапазон

Имя файла D:\Metal Music\Zero Nine 82' & 84' - Blank Verse & Headline\Headline\Zero Nine - Headline.wav

Пиковый уровень 95.7 %
Качество диапазона 100.0 %
CRC копии F127B838
Копирование... OK

Ошибок не произошло

Конец отчёта


APE
folder-APE

Speedy l
Narod

Cпасибо товарищу gatherone


Last edited by oldrocker on 17 Feb 2012, edited 1 time in total.

Top
 Profile  
 
 
PostPosted: 04 Jul 2009 
Хиппей (support team)
User avatar
Joined: 30 Jul 2007
Posts: 105015
Lоcаtion: Киев (Kyiv, UA)
Age: 45
Name: Andrey
Ого, Костя, спасибо :thanx:

_________________


Top
 Profile E-mail  
 
 
PostPosted: 15 Feb 2012 
Персональный статус
User avatar
Joined: 29 Sep 2009
Posts: 271
Lоcаtion: Надым
Age: 39
Name: Виталий
А кто может лося перезалить? :oops:
на ifolder желательно....


Top
 Profile E-mail  
 
 
PostPosted: 15 Feb 2012 
Хиппей (support team)
User avatar
Joined: 30 Jul 2007
Posts: 105015
Lоcаtion: Киев (Kyiv, UA)
Age: 45
Name: Andrey
Угу. Чуть попозже...

_________________


Top
 Profile E-mail  
 
 
PostPosted: 15 Feb 2012 
Alive Again
User avatar
Joined: 17 Dec 2008
Posts: 4562
Lоcаtion: Курск Воронеж Оскол
Age: 43
Name: Дмитрий
Здесь не Костин рип, но думаю ничуть не хуже.

Image
Image

Log
Отчёт EAC об извлечении, выполненном 25. декабря 2008, 19:13 для диска:
Zero Nine / Headline

Дисковод: Optiarc DVD RW AD-7173A Adapter: 2 ID: 1
Режим чтения: Достоверный (C2: нет, Точный поток: да, Отключение кэша: да)
Коррекция смещения при чтении: 48
Способность читать области Lead-in и Lead-out : Нет

Выходной формат: Monkey's Audio Lossless Encoder v3.99 DLL
High Lossless Compression

Другие параметры:
Заполнение пропущенных сэмплов тишиной : Да
Удаление блоков с тишиной в начале и конце : Нет
Встроенный Win32-интерфейс для Win NT/2000


Характеристики диапазона извлечения и сообщения об ошибках
Выбранный диапазон
Имя файла D:\Ape+Book\Zero Nine - Headline.ape

Пиковый уровень 95.7 %
Качество диапазона 100.0 %
CRC 3AED5AFC
Копирование... OK

Ошибок не произошло

Конец отчёта


Cue
REM GENRE Rock
REM DATE 2002
REM DISCID 81087709
REM COMMENT "ExactAudioCopy v0.95b4"
PERFORMER "Zero Nine"
TITLE "Headline"
FILE "Zero Nine - 1984 - Headline.ape" WAVE
TRACK 01 AUDIO
TITLE "Magic Dream"
PERFORMER "Zero Nine"
INDEX 01 00:00:00
TRACK 02 AUDIO
TITLE "Run To The Lights"
PERFORMER "Zero Nine"
INDEX 01 03:10:25
TRACK 03 AUDIO
TITLE "Seven Days Of Love"
PERFORMER "Zero Nine"
INDEX 01 07:16:47
TRACK 04 AUDIO
TITLE "Walk Away"
PERFORMER "Zero Nine"
INDEX 01 10:45:15
TRACK 05 AUDIO
TITLE "I Wanna Give You My Love"
PERFORMER "Zero Nine"
INDEX 01 14:49:45
TRACK 06 AUDIO
TITLE "Queen Of The Ocean Drive"
PERFORMER "Zero Nine"
INDEX 01 18:14:72
TRACK 07 AUDIO
TITLE "Lyin'in The Dark"
PERFORMER "Zero Nine"
INDEX 01 22:49:65
TRACK 08 AUDIO
TITLE "Under the sun"
PERFORMER "Zero Nine"
INDEX 01 26:26:57
TRACK 09 AUDIO
TITLE "Hit The Headline"
PERFORMER "Zero Nine"
INDEX 01 30:04:02


Spectrum
Image


Рабочая ссылка
narod.ru


Top
 Profile E-mail  
 
 
PostPosted: 16 Feb 2012 
Персональный статус
User avatar
Joined: 29 Sep 2009
Posts: 271
Lоcаtion: Надым
Age: 39
Name: Виталий
dr_rockter
Дима, спасибо! :thanx:
С народом придется побороться, не любит он меня! :fingal:


Top
 Profile E-mail  
 
 
PostPosted: 16 Feb 2012 
Пионэръ
User avatar
Joined: 08 Nov 2010
Posts: 43
Lоcаtion: Россия
Name: Юрий
dr_rockter

Спасибо, забираю!


Top
 Profile E-mail  
 
 
PostPosted: 16 Feb 2012 
Хиппей (support team)
User avatar
Joined: 30 Jul 2007
Posts: 105015
Lоcаtion: Киев (Kyiv, UA)
Age: 45
Name: Andrey
:thanx:

mirror: Speedy l Narod

_________________


Top
 Profile E-mail  
 
 
PostPosted: 17 Feb 2012 
Old Time Rock`n`Roll
User avatar
Joined: 23 Jun 2008
Posts: 3342
Lоcаtion: г.Ульяновск
Age: 39
Name: Константин
Обновил ссылку на фолдер, но долго она, думаю, не протянет.


Top
 Profile  
 
 
PostPosted: 17 Feb 2012 
Хиппей (support team)
User avatar
Joined: 30 Jul 2007
Posts: 105015
Lоcаtion: Киев (Kyiv, UA)
Age: 45
Name: Andrey
Протянет :thanx:
Я её теперь точно перезалью куда нада и нинада :crazy:

_________________


Top
 Profile E-mail  
 
Display posts from previous:  Sort by  
Post new topic Reply to topic  [ 10 posts ] 

All times are UTC + 3 hours


Who is online

Users browsing this forum: No registered users and 1 guest


You cannot post new topics in this forum
You cannot reply to topics in this forum
You cannot edit your posts in this forum
You cannot delete your posts in this forum
You cannot post attachments in this forum

Search for:
Яндекс.Метрика
Powered by phpBB © 2000, 2002, 2005, 2007 phpBB Group