\m/ 80's metal \m/

Информационно-аналитический форум "80 см пыли" (In Search We Trust) "У нас никто никуда не спешит"
Me For You - http://me-4u.com
It is currently 19 Nov 2018

All times are UTC + 3 hours

Spoiler
Chat - temporary registration for foreign users (please leave your application here)







Post new topic Reply to topic  [ 52 posts ]  Go to page Previous  1, 2, 3  Next
Author Message
 
PostPosted: 13 Feb 2009 
Персональный статус
User avatar
Joined: 27 Nov 2008
Posts: 429
Age: 29
Name: Сергей
thorbeorn
доггварились..и зарание спасибо.


Top
 Profile  
 
 
PostPosted: 13 Feb 2009 
Генеральный thrasher
User avatar
Joined: 03 Oct 2008
Posts: 3506
Lоcаtion: Ханты-Мансийский АО
Age: 43
Name: Сергей
Альбом в 320 залил сюда:

http://80s.takemetal.com/viewtopic.php?p=39432#39432


Top
 Profile  
 
 
PostPosted: 13 Feb 2009 
Metal Collector
User avatar
Joined: 16 Nov 2008
Posts: 1230
Lоcаtion: Химки
Age: 35
Name: Андрей
EG Power
Видимо и вправду дело в том, кто на чём слушает. Я просто стронник оригинала, и все эти прибамбасы новомодные не люблю, если изначально так не было записано.

Насчёт громкости - есть замечательная штука ReplayGain. Правда, не знаю как с её поддержкой в плеерах, но если применить её к оригиналу и ремастеру и потом сравнить, то можо услышать непосредственно разницу в звучании ремастера, исключив разницу в громкости. Зачастую после такого сравнения записи не кажутся уже настолько разнящимися, а ремастер настолько сочным. Это ж по сути приём такой психологический - более громкая запись кажется лучше.


Top
 Profile E-mail  
 
 
PostPosted: 24 Oct 2009 
5-speed satisfactor
User avatar
Joined: 16 Feb 2009
Posts: 3621
Lоcаtion: New York, USA
Age: 40
Name: Leonid
Ремастер не слышал, но есть оригинал, если кому надо.

_________________
Death rules! Metal to all who oppose!


Top
 Profile  
 
 
PostPosted: 24 Oct 2009 
Thrasher
User avatar
Joined: 07 Oct 2007
Posts: 2756
Lоcаtion: Russia, Moscow
Age: 34
Name: Drunk & Evil
хорошее дело, я заберу :true:

_________________
ВОДКА, БАБЫ И БЛЮЗ / 40° till death... :bodun:
One time we saw some hookers, but when we got closer, we realised it was Mötley Crüe. ©


Top
 Profile  
 
 
PostPosted: 25 Oct 2009 
5-speed satisfactor
User avatar
Joined: 16 Feb 2009
Posts: 3621
Lоcаtion: New York, USA
Age: 40
Name: Leonid
http://www.megaupload.com/?d=UETJSPCQ

cue
REM GENRE "Thrash Metal"
REM DATE 1988
REM DISCID 730B8709
REM COMMENT "ExactAudioCopy v0.99pb5"
PERFORMER "Znowhite"
TITLE "Act Of God"
FILE "Znowhite - Act Of God.flac" WAVE
TRACK 01 AUDIO
TITLE "To The Last Breath"
PERFORMER "Znowhite"
INDEX 01 00:00:00
TRACK 02 AUDIO
TITLE "Baptised By Fire"
PERFORMER "Znowhite"
INDEX 00 05:40:10
INDEX 01 05:41:03
TRACK 03 AUDIO
TITLE "Pure Blood"
PERFORMER "Znowhite"
INDEX 01 09:40:33
TRACK 04 AUDIO
TITLE "War Machine"
PERFORMER "Znowhite"
INDEX 01 14:33:48
TRACK 05 AUDIO
TITLE "Thunderdome"
PERFORMER "Znowhite"
INDEX 00 20:02:55
INDEX 01 20:05:60
TRACK 06 AUDIO
TITLE "Rest In Peace"
PERFORMER "Znowhite"
INDEX 01 24:34:18
TRACK 07 AUDIO
TITLE "Disease Bigotry"
PERFORMER "Znowhite"
INDEX 01 30:39:40
TRACK 08 AUDIO
TITLE "A Soldier's Creed"
PERFORMER "Znowhite"
INDEX 00 35:28:58
INDEX 01 35:30:03
TRACK 09 AUDIO
TITLE "Something Wicked (This Way Comes)"
PERFORMER "Znowhite"
INDEX 01 39:43:65


log
Exact Audio Copy V0.99 prebeta 5 from 4. May 2009

EAC extraction logfile from 24. October 2009, 13:05

Znowhite / Act Of God

Used drive : MATSHITADVD-R UJ-867 Adapter: 0 ID: 0

Read mode : Secure
Utilize accurate stream : Yes
Defeat audio cache : No
Make use of C2 pointers : Yes

Read offset correction : 102
Overread into Lead-In and Lead-Out : No
Fill up missing offset samples with silence : Yes
Delete leading and trailing silent blocks : No
Null samples used in CRC calculations : No
Used interface : Native Win32 interface for Win NT & 2000

Used output format : User Defined Encoder
Selected bitrate : 768 kBit/s
Quality : High
Add ID3 tag : No
Command line compressor : C:\Program Files\Exact Audio Copy\FLAC\FLAC.EXE
Additional command line options : -8 -V -T "ARTIST=%a" -T "TITLE=%t" -T "ALBUM=%g" -T "DATE=%y" -T "TRACKNUMBER=%n" -T "GENRE=%m" -T "COMMENT=%e" %s -o %d


TOC of the extracted CD

Track | Start | Length | Start sector | End sector
---------------------------------------------------------
1 | 0:00.00 | 5:41.03 | 0 | 25577
2 | 5:41.03 | 3:59.30 | 25578 | 43532
3 | 9:40.33 | 4:53.15 | 43533 | 65522
4 | 14:33.48 | 5:32.12 | 65523 | 90434
5 | 20:05.60 | 4:28.33 | 90435 | 110567
6 | 24:34.18 | 6:05.22 | 110568 | 137964
7 | 30:39.40 | 4:50.38 | 137965 | 159752
8 | 35:30.03 | 4:13.62 | 159753 | 178789
9 | 39:43.65 | 9:27.55 | 178790 | 221369


Range status and errors

Selected range

Filename C:\Documents and Settings\leonid\My Documents\My Music\ToCD\Znowhite - Act Of God.wav

Peak level 99.2 %
Range quality 100.0 %
Copy CRC 558E3124
Copy OK

No errors occurred

End of status report

_________________
Death rules! Metal to all who oppose!


Top
 Profile  
 
 
PostPosted: 25 Oct 2009 
Хиппей (support team)
User avatar
Joined: 30 Jul 2007
Posts: 108189
Lоcаtion: Киев (Kyiv, UA)
Age: 45
Name: Andrey
Thanx :true:

_________________


Top
 Profile E-mail  
 
 
PostPosted: 27 Oct 2009 
Работнечег
User avatar
Joined: 28 Aug 2007
Posts: 5534
Lоcаtion: г. Москва
Age: 29
Name: Дима
Спасибо! :thanx:


Top
 Profile E-mail  
 
 
PostPosted: 27 Oct 2009 
Metal Collector
User avatar
Joined: 16 Nov 2008
Posts: 1230
Lоcаtion: Химки
Age: 35
Name: Андрей
К разговору о правильных рипах:

Defeat audio cache : No
Make use of C2 pointers : Yes

Должно быть наоборот.


Top
 Profile E-mail  
 
 
PostPosted: 28 Oct 2009 
5-speed satisfactor
User avatar
Joined: 16 Feb 2009
Posts: 3621
Lоcаtion: New York, USA
Age: 40
Name: Leonid
У меня это выдало по умолчанию.

_________________
Death rules! Metal to all who oppose!


Top
 Profile  
 
 
PostPosted: 28 Oct 2009 
Прокъмитолист
User avatar
Joined: 12 Aug 2007
Posts: 6504
Lоcаtion: Санктъ-Петербуркъ
Age: 51
Name: Олекъ
Андрей прав. кэш привода лучше отключать, а С2 не использовать. даже если привод и так не использует С2 и не имеет кэша (и выдает такие настройки по умолчанию) - так всем спокойнее, и рип ни у кого сомнений не вызовет.

_________________
прокъметол - это музыко, от которово есть прок (ы)


Top
 Profile  
 
 
PostPosted: 28 Oct 2009 
Metal Collector
User avatar
Joined: 16 Nov 2008
Posts: 1230
Lоcаtion: Химки
Age: 35
Name: Андрей
metaleonid
Если вкратце, то это уже стандарт для правильных рипов, который гарантированно обеспечивает правильность снятия данных с CD для всех приводов. Просто со стороны качающего будет меньше недоумений на тему того, у автора это так прога самонастроилась или он всё же ошибочно сам навключал, так как разобраться в этом зачастую возможности нет или занимает доп. время.


Top
 Profile E-mail  
 
 
PostPosted: 06 Aug 2011 
Персональный статус
User avatar
Joined: 11 May 2011
Posts: 416
Lоcаtion: Omsk
Age: 28
Name: Alexander
У кого-нибудь остался рип Леонида? Перезалейте пожалуйста! :pray:

_________________
Enigma, unholy, ungodly, commander of the regeneration
Insidious and caught, implored by disgrace
Inhumation... The burial of man
Confession... Unify all evil


Top
 Profile E-mail  
 
 
PostPosted: 07 Aug 2011 
Хиппей (support team)
User avatar
Joined: 30 Jul 2007
Posts: 108189
Lоcаtion: Киев (Kyiv, UA)
Age: 45
Name: Andrey
Явно у меня :pardon: Только где он лежит, пока не пойму.
Почему-то не всё успеваю отзеркалить сразу :vic:

_________________


Top
 Profile E-mail  
 
 
PostPosted: 09 Aug 2011 
Персональный статус
User avatar
Joined: 11 May 2011
Posts: 416
Lоcаtion: Omsk
Age: 28
Name: Alexander
Андрей, если не затруднит :thanx: Леонид редкие и правильные вещи выкладывает :true:

_________________
Enigma, unholy, ungodly, commander of the regeneration
Insidious and caught, implored by disgrace
Inhumation... The burial of man
Confession... Unify all evil


Top
 Profile E-mail  
 
 
PostPosted: 09 Aug 2011 
Хиппей (support team)
User avatar
Joined: 30 Jul 2007
Posts: 108189
Lоcаtion: Киев (Kyiv, UA)
Age: 45
Name: Andrey
Так-с... Нашёл вот такое у себя на винте

Image

Что из этого нужно? :vic:

_________________


Top
 Profile E-mail  
 
 
PostPosted: 09 Aug 2011 
Персональный статус
User avatar
Joined: 11 May 2011
Posts: 416
Lоcаtion: Omsk
Age: 28
Name: Alexander
Из этого... похоже ничего и не нужно :smile: Всё это есть здесь в одном flac'оне. Act of God вижу нет, жаль :cry:

_________________
Enigma, unholy, ungodly, commander of the regeneration
Insidious and caught, implored by disgrace
Inhumation... The burial of man
Confession... Unify all evil


Top
 Profile E-mail  
 
 
PostPosted: 10 Aug 2011 
Хиппей (support team)
User avatar
Joined: 30 Jul 2007
Posts: 108189
Lоcаtion: Киев (Kyiv, UA)
Age: 45
Name: Andrey
О, спасибо, хоть понял, откуда я это скачивал :oops: :thanx:

Schmelzer wrote:
Act of God вижу нет, жаль

Есть, есть. Его не может не быть, я точно скачивал (остальные еще не проснулись или лень ковыряться на винтах и банально впадлу перезалить).

_________________


Top
 Profile E-mail  
 
 
PostPosted: 15 Aug 2011 
ТрэшЭрос
User avatar
Joined: 18 Jul 2011
Posts: 2300
Lоcаtion: Гулькевичи
Age: 43
Name: Александр
Та шо ж це таке, а? Хлопци, хде хоть одна сцылка-то? :dash: ЁЖЗИК... :(

_________________
Thrash no trash!!!


Top
 Profile E-mail  
 
 
PostPosted: 11 Dec 2016 
5-speed satisfactor
User avatar
Joined: 16 Feb 2009
Posts: 3621
Lоcаtion: New York, USA
Age: 40
Name: Leonid
Нужен Act Of God? Я могу перезалитъ. Но придется как всегда треки склеивать. Рип старый престарый.

_________________
Death rules! Metal to all who oppose!


Top
 Profile  
 
Display posts from previous:  Sort by  
Post new topic Reply to topic  [ 52 posts ]  Go to page Previous  1, 2, 3  Next

All times are UTC + 3 hours


Who is online

Users browsing this forum: No registered users and 3 guests


You cannot post new topics in this forum
You cannot reply to topics in this forum
You cannot edit your posts in this forum
You cannot delete your posts in this forum
You cannot post attachments in this forum

Search for:
Яндекс.Метрика
Powered by phpBB © 2000, 2002, 2005, 2007 phpBB Group