\m/ 80's metal \m/

Информационно-аналитический форум "80 см пыли" (In Search We Trust) "У нас никто никуда не спешит"
Me For You - http://me-4u.com
It is currently 21 Nov 2018

All times are UTC + 3 hours

Spoiler
Chat - temporary registration for foreign users (please leave your application here)







Post new topic Reply to topic  [ 17 posts ] 
Author Message
 
PostPosted: 15 Sep 2008 
труъ антисионист
User avatar
Joined: 01 Aug 2007
Posts: 4541
Lоcаtion: Откуда и большинство из нас
Age: 37
Name: Дядя Вова
Image

Группа: Znowhite
Альбом: All Hail To Thee & Kick 'em When They're Down
Год: 1998
Лейбл: Axe Killer Records
Стиль: Speed Metal
Страна: USA
Формат: Flac
Размер: 231 Mb

***********************************************************************************

Band:
Nicole Lee - vocals
Ian Tafoya - guitar, bass
Sparks Tafoya - drums


Tracklist:
01. Sledgehammer 01:54
02. Saturday Night 01:44
03. Somethin' for Nothin' 02:34
04. Bringin' the Hammer Down 02:44
05. Do or Die 01:37
06. Never Felt Like This 03:48
07. Rock City Destination 02:38
08. Live for the Weekend 01:26
09. All Hail to Thee 03:12
10. Run Like the Wind 04:23
11. Too Late 02:13
12. Turn Up the Pain 05:25


Total time 33.37

====================DOWNLOAD===================

Narod

_________________
Image
Image


Top
 Profile  
 
 
PostPosted: 15 Sep 2008 
Power Metal Maniac
User avatar
Joined: 09 Aug 2008
Posts: 6366
Lоcаtion: Москва
Age: 40
Name: Егор
:true: огромное спасибо за лося! :thanx: давно хотел!

_________________
Long Live Metal!


Top
 Profile  
 
 
PostPosted: 15 Sep 2008 
Хиппей (support team)
User avatar
Joined: 30 Jul 2007
Posts: 108243
Lоcаtion: Киев (Kyiv, UA)
Age: 45
Name: Andrey
:thanx:


Top
 Profile E-mail  
 
 
PostPosted: 10 Feb 2009 
Персональный статус
User avatar
Joined: 16 Jul 2008
Posts: 222
Lоcаtion: Киров
Age: 29
Name: Олег
Спасибо! :true: зацепила комманда :dance:


Top
 Profile  
 
 
PostPosted: 19 Feb 2009 
Персональный статус
User avatar
Joined: 27 Nov 2008
Posts: 429
Age: 29
Name: Сергей
А можете в мр3 кто перезалить плз. :oops:


Top
 Profile  
 
 
PostPosted: 19 Feb 2009 
Хиппей (support team)
User avatar
Joined: 30 Jul 2007
Posts: 108243
Lоcаtion: Киев (Kyiv, UA)
Age: 45
Name: Andrey
Ragval0d wrote:
в мр3

http://masterofpuppets-stayheavy.blogsp ... white.html


Top
 Profile E-mail  
 
 
PostPosted: 24 Oct 2009 
5-speed satisfactor
User avatar
Joined: 16 Feb 2009
Posts: 3622
Lоcаtion: New York, USA
Age: 40
Name: Leonid
AXE Killer - говно. Сделали с винила и испаганили запись. У меня есть мой собственный рип с винилов + Hellbent с гибкой пластинки плюс Live! с винила плюс трек с Metal Massacre CD. Усе на одном диске. Заливать?

_________________
Death rules! Metal to all who oppose!


Top
 Profile  
 
 
PostPosted: 24 Oct 2009 
Я набрал 1000 сообщений!
User avatar
Joined: 25 Dec 2008
Posts: 1545
Age: 43
Name: Павел
Не откажусь(да и остальные тоже!).
Вроде еще есть переиздание от 2007 года-все 3 миника от Metal Mind.


Top
 Profile  
 
 
PostPosted: 24 Oct 2009 
5-speed satisfactor
User avatar
Joined: 16 Feb 2009
Posts: 3622
Lоcаtion: New York, USA
Age: 40
Name: Leonid
Не слышал метал майнд. Хотел бы сам послухать. Они может и мой источник сп-здили. Я его Кингу Fawley отправлял. Он может им переслал. Не знаю. Залью.

_________________
Death rules! Metal to all who oppose!


Top
 Profile  
 
 
PostPosted: 24 Oct 2009 
5-speed satisfactor
User avatar
Joined: 16 Feb 2009
Posts: 3622
Lоcаtion: New York, USA
Age: 40
Name: Leonid
Вот лови ну и дай знать как тебе мой мастеринг по сравнению с Axe Killer.

http://www.megaupload.com/?d=544P86Y9

cue
REM GENRE "Speed Metal"
REM DISCID 240E5C15
REM COMMENT "ExactAudioCopy v0.99pb5"
PERFORMER "Znowhite"
TITLE "All Hail To Thee, Kick 'Em When They're Down, Live Suicide, plus more"
FILE "Znowhite - All Hail To Thee, Kick 'Em When They're Down, Live Suicide, plus more.wav" WAVE
TRACK 01 AUDIO
TITLE "Hellbent"
PERFORMER "Znowhite"
INDEX 01 00:00:00
TRACK 02 AUDIO
TITLE "Vengeance"
PERFORMER "Znowhite"
INDEX 00 01:48:40
INDEX 01 01:50:40
TRACK 03 AUDIO
TITLE "Sledgehammer"
PERFORMER "Znowhite"
INDEX 00 03:51:71
INDEX 01 03:53:71
TRACK 04 AUDIO
TITLE "Saturday Night"
PERFORMER "Znowhite"
INDEX 01 05:48:00
TRACK 05 AUDIO
TITLE "Somethin' For Nothin'"
PERFORMER "Znowhite"
INDEX 01 07:32:57
TRACK 06 AUDIO
TITLE "Bringin' The Hammer Down"
PERFORMER "Znowhite"
INDEX 01 10:10:74
TRACK 07 AUDIO
TITLE "Do Or Die"
PERFORMER "Znowhite"
INDEX 00 13:04:16
INDEX 01 13:05:16
TRACK 08 AUDIO
TITLE "Never Felt Like This"
PERFORMER "Znowhite"
INDEX 01 14:42:17
TRACK 09 AUDIO
TITLE "Rock City Destination"
PERFORMER "Znowhite"
INDEX 01 18:35:54
TRACK 10 AUDIO
TITLE "Live For The Weekend"
PERFORMER "Znowhite"
INDEX 00 21:05:62
INDEX 01 21:07:62
TRACK 11 AUDIO
TITLE "All Hail To Thee"
PERFORMER "Znowhite"
INDEX 01 22:36:62
TRACK 12 AUDIO
TITLE "Run Like The Wind"
PERFORMER "Znowhite"
INDEX 01 25:49:25
TRACK 13 AUDIO
TITLE "Too Late"
PERFORMER "Znowhite"
INDEX 00 30:13:54
INDEX 01 30:14:54
TRACK 14 AUDIO
TITLE "Turn Up The Pain"
PERFORMER "Znowhite"
INDEX 01 32:32:30
TRACK 15 AUDIO
TITLE "Hellbent"
PERFORMER "Znowhite"
INDEX 00 37:56:49
INDEX 01 37:58:49
TRACK 16 AUDIO
TITLE "Bringin' The Hammer Down"
PERFORMER "Znowhite"
INDEX 01 39:50:64
TRACK 17 AUDIO
TITLE "There's No Tommorrow"
PERFORMER "Znowhite"
INDEX 01 42:22:45
TRACK 18 AUDIO
TITLE "Too Late"
PERFORMER "Znowhite"
INDEX 01 45:51:10
TRACK 19 AUDIO
TITLE "Rock City Destination"
PERFORMER "Znowhite"
INDEX 01 47:59:56
TRACK 20 AUDIO
TITLE "Night On Parole"
PERFORMER "Znowhite"
INDEX 01 50:54:26
TRACK 21 AUDIO
TITLE "Rest In Peace"
PERFORMER "Znowhite"
INDEX 01 54:25:23

_________________
Death rules! Metal to all who oppose!


Top
 Profile  
 
 
PostPosted: 24 Oct 2009 
Работнечег
User avatar
Joined: 28 Aug 2007
Posts: 5555
Lоcаtion: г. Москва
Age: 29
Name: Дима
Спасибо! :thanx:


Top
 Profile E-mail  
 
 
PostPosted: 24 Oct 2009 
дядя Миша
User avatar
Joined: 17 Oct 2008
Posts: 3074
Lоcаtion: USSR
Age: 56
Name: Khy
http://torrents.ru/forum/viewtopic.php?t=1111617


Top
 Profile  
 
 
PostPosted: 12 Dec 2009 
Metal Collector
User avatar
Joined: 16 Nov 2008
Posts: 1230
Lоcаtion: Химки
Age: 35
Name: Андрей
По поводу Лёниного сборника Znowhite могу сказать, что мне больше всего на нём звук понравился по сравнению с Axe Killer и Metal Mind. Ну и то, как сделана вся косметика - фейды, паузы и так далее. Очень приятный релизик оказался. Ещё раз спасибо!


Top
 Profile E-mail  
 
 
PostPosted: 06 Aug 2011 
Персональный статус
User avatar
Joined: 11 May 2011
Posts: 416
Lоcаtion: Omsk
Age: 28
Name: Alexander
Леонид, спасибо! :gra:

_________________
Enigma, unholy, ungodly, commander of the regeneration
Insidious and caught, implored by disgrace
Inhumation... The burial of man
Confession... Unify all evil


Top
 Profile E-mail  
 
 
PostPosted: 07 Aug 2011 
Хиппей (support team)
User avatar
Joined: 30 Jul 2007
Posts: 108243
Lоcаtion: Киев (Kyiv, UA)
Age: 45
Name: Andrey
О, хоть здесь ссылка жива. Перезаливаю :dance:
mirror: MultiUp l Narod

_________________


Top
 Profile E-mail  
 
 
PostPosted: 15 Aug 2011 
ТрэшЭрос
User avatar
Joined: 18 Jul 2011
Posts: 2300
Lоcаtion: Гулькевичи
Age: 43
Name: Александр
:thanx:

_________________
Thrash no trash!!!


Top
 Profile E-mail  
 
 
PostPosted: 17 Aug 2011 
5-speed satisfactor
User avatar
Joined: 16 Feb 2009
Posts: 3622
Lоcаtion: New York, USA
Age: 40
Name: Leonid
О... Не видел ссылку. Это по моему CD, а там в другой теме просто флаки, как они хранятся у меня на жестком диске.... И я не помню есть здесь фейды или нет. Но цифра одна.

_________________
Death rules! Metal to all who oppose!


Top
 Profile  
 
Display posts from previous:  Sort by  
Post new topic Reply to topic  [ 17 posts ] 

All times are UTC + 3 hours


Who is online

Users browsing this forum: No registered users and 1 guest


You cannot post new topics in this forum
You cannot reply to topics in this forum
You cannot edit your posts in this forum
You cannot delete your posts in this forum
You cannot post attachments in this forum

Search for:
Яндекс.Метрика
cron
Powered by phpBB © 2000, 2002, 2005, 2007 phpBB Group