\m/ 80's metal \m/

Информационно-аналитический форум "80 см пыли" (In Search We Trust) "У нас никто никуда не спешит"
Железнодорожная биржа - RailAgent
It is currently 18 Jul 2018

All times are UTC + 3 hours

Spoiler
Chat - temporary registration for foreign users (please leave your application here)







Post new topic Reply to topic  [ 40 posts ]  Go to page 1, 2  Next
Author Message
 
PostPosted: 20 Oct 2011 
А может смените мне статус?..
Joined: 12 Dec 2008
Posts: 942
Lоcаtion: BULGARIA
Age: 39
Name: DIMITЪR
Zions Abyss - T.A.L.E.S.[1991]

Image

Genre:Power / Progressive metal
Label: Steel Legacy Records


Track list:
1. Madness / Sorrow On The Horizon
2. Final Command
3. Darkest Dream
4. Running Out Of Time
5. Scarred For Life
6. Changing Sands
7. Time Traveller
8. Son Of Sam
9. Mercenary
10. Forever Alive
11. Serenity


Top
 Profile  
 
 
PostPosted: 20 Oct 2011 
консэрваторъ
Joined: 11 Aug 2007
Posts: 15648
Lоcаtion: Псков
Age: 44
Name: Сергей
DIMITAR, insert an image into the body of your message... please

_________________
THRASH 'EM ALL


Top
 Profile E-mail  
 
 
PostPosted: 20 Oct 2011 
Хиппей (support team)
User avatar
Joined: 30 Jul 2007
Posts: 105067
Lоcаtion: Киев (Kyiv, UA)
Age: 45
Name: Andrey
Пробую у Спидика проверить альбом. Не указано в списке, что это CDR :dance:

Димитар, ты начал активно изучать каталог Speedyk? :nunu:

_________________


Top
 Profile E-mail  
 
 
PostPosted: 20 Oct 2011 
*** Умер ***
User avatar
Joined: 25 Apr 2009
Posts: 2188
Lоcаtion: Санкт-Петербург
Age: 32
Name: Кирилл
Достаточно хороший альбом.


Top
 Profile E-mail  
 
 
PostPosted: 29 Oct 2011 
Хиппей (support team)
User avatar
Joined: 30 Jul 2007
Posts: 105067
Lоcаtion: Киев (Kyiv, UA)
Age: 45
Name: Andrey
Zions Abyss - 1991 - T.A.L.E.S. [flac]

Attachment:
front.jpg
front.jpg [ 1.68 MiB | Viewed 138 times ]

Attachment:
back.jpg
back.jpg [ 1.22 MiB | Viewed 138 times ]

Attachment:
band.jpg
band.jpg [ 37.86 KiB | Viewed 2016 times ]


Genre: Power Prog Heavy
Location: Canada
Format: flac+cue+log+covers (front+back)
Size: 415 Mb


Line-up:

Mike Plummer - Bass, Vocals (backing)
Eddy Zern - Drums
Andy Waitkus (R.I.P. 1996) - Guitars, Vocals (backing)
Klaus Whissel - Vocals

    1. Madness / Sorrow On The Horizon - 07:35
    2. Final Command - 03:36
    3. Darkest Dream - 04:46
    4. Running Out Of Time - 04:52
    5. Scarred For Life - 06:08
    6. Changing Sands - 06:18
    7. Time Traveller - 04:50
    8. Son Of Sam - 05:27
    9. Mercenary - 04:13
    10. Forever Alive - 07:06
    11. Serenity - 01:48

    TPT: 56:39

7/10

MultiUp l Narod

log
Exact Audio Copy V1.0 beta 1 from 15. November 2010

Отчет на EAC за извличане, извършено на 23. ноември 2011, 22:54

Zions Abyss / T.A.L.E.S.

Използвано устройство : HL-DT-STDVDRAM GH22NS70 Adapter: 2 ID: 0

Режим на четене : Burst

Офсет корекция при четене : 0
Препрочитане на секторите Lead-In и Lead-Out : Не
Запълване на липсващи офсет семпли с тишина : Да
Изтриване на блокове тишина в началото и края : Не
Използване на нулеви семпли при CRC изчисления : Не
Използван интерфейс : Вграден Win32 интерфейс за Win NT & 2000

Използван изходен формат : Енкодер Дефиниран от Потребителя
Избран битрейт : 896 kBit/s
Качество : Високо
Добави ID3 таг : Не
Конзолен компресор : D:\EAC 2\EAC_1.0_beta_1_Portable_Multilingual\App\EAC\FLAC\flac.exe
Допълнителни конзолни опции : -6 -V -T "ARTIST=%a" -T "TITLE=%t" -T "ALBUM=%g" -T "DATE=%y" -T "TRACKNUMBER=%n" -T "GENRE=%m" -T "COMMENT=%e" %j--picture="%i"%j %s -o %d


TOC на извлечения CD

Трак | Начало | Дължина | Начален сектор | Краен сектор
------------------------------------------------------------
1 | 0:00.00 | 1:25.23 | 0 | 6397
2 | 1:25.23 | 6:05.31 | 6398 | 33803
3 | 7:30.54 | 3:33.48 | 33804 | 49826
4 | 11:04.27 | 4:45.37 | 49827 | 71238
5 | 15:49.64 | 4:48.49 | 71239 | 92887
6 | 20:38.38 | 6:02.09 | 92888 | 120046
7 | 26:40.47 | 6:11.32 | 120047 | 147903
8 | 32:52.04 | 4:47.06 | 147904 | 169434
9 | 37:39.10 | 5:26.42 | 169435 | 193926
10 | 43:05.52 | 4:11.63 | 193927 | 212814
11 | 47:17.40 | 7:01.11 | 212815 | 244400
12 | 54:18.51 | 1:49.43 | 244401 | 252618


Състояние и грешки на диапазон

Избран диапазон

Име на файл D:\MUSIC Torrent from Download\Zions Abyss.wav

Пиково ниво 97.7 %
Скорост на извличане 0.8 X
Тестван CRC CF4A8829
Копиран CRC CF4A8829
Копиране OK

Няма грешки

Край на отчета


cue
REM GENRE Metal
REM DATE 1991
REM DISCID A40D280C
REM COMMENT "ExactAudioCopy v1.0b1"
PERFORMER "Zions Abyss "
TITLE "T.A.L.E.S."
FILE "Zions Abyss.flac" WAVE
TRACK 01 AUDIO
TITLE "Madness"
PERFORMER "Zions Abyss "
FLAGS DCP
INDEX 01 00:00:00
TRACK 02 AUDIO
TITLE "Sorrow On The Horizon"
PERFORMER "Zions Abyss "
FLAGS DCP
INDEX 01 01:25:23
TRACK 03 AUDIO
TITLE "Final Command"
PERFORMER "Zions Abyss "
FLAGS DCP
INDEX 01 07:30:54
TRACK 04 AUDIO
TITLE "Darkest Dream"
PERFORMER "Zions Abyss "
FLAGS DCP
INDEX 01 11:04:27
TRACK 05 AUDIO
TITLE "Running Out Of Time"
PERFORMER "Zions Abyss "
FLAGS DCP
INDEX 01 15:49:64
TRACK 06 AUDIO
TITLE "Scarred For Life"
PERFORMER "Zions Abyss "
FLAGS DCP
INDEX 01 20:38:38
TRACK 07 AUDIO
TITLE "Changing Sands"
PERFORMER "Zions Abyss "
FLAGS DCP
INDEX 01 26:40:47
TRACK 08 AUDIO
TITLE "Time Traveller"
PERFORMER "Zions Abyss "
FLAGS DCP
INDEX 01 32:52:04
TRACK 09 AUDIO
TITLE "Son Of Sam"
PERFORMER "Zions Abyss "
FLAGS DCP
INDEX 01 37:39:10
TRACK 10 AUDIO
TITLE "Mercenary"
PERFORMER "Zions Abyss "
FLAGS DCP
INDEX 01 43:05:52
TRACK 11 AUDIO
TITLE "Forever Alive"
PERFORMER "Zions Abyss "
FLAGS DCP
INDEX 01 47:17:40
TRACK 12 AUDIO
TITLE "Serenity"
PERFORMER "Zions Abyss "
FLAGS DCP
INDEX 01 54:18:51


spectrum
Attachment:
spectrum.jpg
spectrum.jpg [ 362.6 KiB | Viewed 131 times ]


Особая благодарность Димитару (cryptors) за работу над шлифовкой лося :thanx:

_________________


Top
 Profile E-mail  
 
 
PostPosted: 30 Oct 2011 
А может смените мне статус?..
Joined: 12 Dec 2008
Posts: 942
Lоcаtion: BULGARIA
Age: 39
Name: DIMITЪR
Принципно интро и первая песня требует связани, а тут с пауза сделано ,ето получается когда диск не копирается 1-1 Диск можно сделан из оригалного но не хорошо, ето мое мнение а иначе спасибо :true:

Attachment:
2011-10-30_124351.png
2011-10-30_124351.png [ 28.76 KiB | Viewed 1987 times ]


При етого варианта запис правильньй диск копирается 1-1

Attachment:
2011-10-30пауза_124617.png
2011-10-30пауза_124617.png [ 91.93 KiB | Viewed 129 times ]


С етой вариант получается пауза между треками если не корегировать с 0


Top
 Profile  
 
 
PostPosted: 30 Oct 2011 
Хиппей (support team)
User avatar
Joined: 30 Jul 2007
Posts: 105067
Lоcаtion: Киев (Kyiv, UA)
Age: 45
Name: Andrey
Димитар, а можешь паузу эту верезать и перезалить файлик? :oops:
А то я явно не скоро доберусь к этому альбому, чтоб отредактировать wav-файл :pardon:

_________________


Top
 Profile E-mail  
 
 
PostPosted: 30 Oct 2011 
А может смените мне статус?..
Joined: 12 Dec 2008
Posts: 942
Lоcаtion: BULGARIA
Age: 39
Name: DIMITЪR
Чей етот рип?


Top
 Profile  
 
 
PostPosted: 30 Oct 2011 
Хиппей (support team)
User avatar
Joined: 30 Jul 2007
Posts: 105067
Lоcаtion: Киев (Kyiv, UA)
Age: 45
Name: Andrey
А, пробую сам... http://www.wikisound.org/Adobe_Audition ... 0%BB%D0%B0

_________________


Top
 Profile E-mail  
 
 
PostPosted: 30 Oct 2011 
Хиппей (support team)
User avatar
Joined: 30 Jul 2007
Posts: 105067
Lоcаtion: Киев (Kyiv, UA)
Age: 45
Name: Andrey
cryptors wrote:
Чей етот рип?

Scatterbrain wrote:
Пробую у Спидика проверить альбом. Не указано в списке, что это CDR

У него на диске тоже без паузы записано :pardon:

Attachment:
CD.jpg
CD.jpg [ 164.38 KiB | Viewed 124 times ]

_________________


Top
 Profile E-mail  
 
 
PostPosted: 30 Oct 2011 
А может смените мне статус?..
Joined: 12 Dec 2008
Posts: 942
Lоcаtion: BULGARIA
Age: 39
Name: DIMITЪR
Scatterbrain wrote:
cryptors wrote:
Чей етот рип?

Scatterbrain wrote:
Пробую у Спидика проверить альбом. Не указано в списке, что это CDR

У него на диске тоже без паузы записано :pardon:

Attachment:
CD.jpg

Как узнал че без пауза :vic:
Если диск рипнут с Exact Audio copy, диск требуеть будет 1-1 с оригинал, твой flac с пауза, как ето получилось , просто невозможно ,логично и его диск с пауза :vic:


Top
 Profile  
 
 
PostPosted: 30 Oct 2011 
Хиппей (support team)
User avatar
Joined: 30 Jul 2007
Posts: 105067
Lоcаtion: Киев (Kyiv, UA)
Age: 45
Name: Andrey
Не знаю как, как это получилось, но на диске паузы нет.
Ты сможешь её удалить, разжав flac в wav? И снова собрав рип нормально?

_________________


Top
 Profile E-mail  
 
 
PostPosted: 30 Oct 2011 
А может смените мне статус?..
Joined: 12 Dec 2008
Posts: 942
Lоcаtion: BULGARIA
Age: 39
Name: DIMITЪR
Scatterbrain wrote:
Не знаю как, как это получилось, но на диске паузы нет.
Ты сможешь её удалить, разжав flac в wav? И снова собрав рип нормально?


Где усльшал че нет пауза,он сказал....
Принципно може но там где 1 и 2 песня присоединяется будеть получится потрескиване потомущо один раз песни бьли разбитьй по отдельности .

Тьй можеш сделает и сам

Attachment:
1.png
1.png [ 31.85 KiB | Viewed 1930 times ]


Attachment:
2.png
2.png [ 31.77 KiB | Viewed 1946 times ]


Attachment:
2.png
2.png [ 31.77 KiB | Viewed 1946 times ]


С изключение на первая песня на всех корегировать с пауза 0


Attachments:
3.png
3.png [ 99.63 KiB | Viewed 131 times ]
Top
 Profile  
 
 
PostPosted: 30 Oct 2011 
Хиппей (support team)
User avatar
Joined: 30 Jul 2007
Posts: 105067
Lоcаtion: Киев (Kyiv, UA)
Age: 45
Name: Andrey
Ааа, спасибо.
Но выйдет тоже самое :pardon:

Ок, если тебе не мешает эта пауза (щелчок) и ты не желаешь помочь её вырезать, и остальным безразлично, то я себе позже сделаю рип без дефекта :dance:

_________________


Top
 Profile E-mail  
 
 
PostPosted: 31 Oct 2011 
Прокъмитолист
User avatar
Joined: 12 Aug 2007
Posts: 6417
Lоcаtion: Санктъ-Петербуркъ
Age: 50
Name: Олекъ
дабы снять все вопросы:

CUETools log
[Verification date: 31.10.2011 17:40:23]
[Disc ID: 001861f9-00e9552a-ab0d290c]
Track [ CRC ] Status
01 [30f760a7] (03/03) Accurately ripped
02 [c6c1c087] (03/03) Accurately ripped
03 [10ce5c53] (03/03) Accurately ripped
04 [db16dc37] (03/03) Accurately ripped
05 [7cd6404f] (03/03) Accurately ripped
06 [62b41567] (03/03) Accurately ripped
07 [78bac61a] (03/03) Accurately ripped
08 [4ba8efe5] (03/03) Accurately ripped
09 [4ddbe51d] (03/03) Accurately ripped
10 [4c4ef033] (03/03) Accurately ripped
11 [b11566e5] (03/03) Accurately ripped
12 [3d7e26f6] (03/03) Accurately ripped

Track [ CRC32 ] [W/O NULL]
-- [F5F4B576] [6E0E4A96]
01 [651912DD] [F8E1DDFD]
02 [F948987B] [CABADAA9]
03 [56611C92] [334E38A7]
04 [00ED0076] [BEB7CBAC]
05 [6B4D8DBC] [4D8CD16F]
06 [905ACA22] [3819F151]
07 [896EBED5] [2931DEE2]
08 [246B2CC0] [DC400F50]
09 [18A465F5] [DDB269AD]
10 [E91466AE] [6A49CADF]
11 [16E145F8] [C7412B0E]
12 [4721381B] [7448900C]

по меньшей мере три человека до Михаила рипнули этот альбом - и все четыре (считая и этот рип) результата идентичны. о чем нам это говорит? о том, что если в рипе есть косяки, то это косяки данного переиздания :pardon:

з.ы. спасибо за рип всем причастным :thanx:

_________________
прокъметол - это музыко, от которово есть прок (ы)


Top
 Profile  
 
 
PostPosted: 31 Oct 2011 
Хиппей (support team)
User avatar
Joined: 30 Jul 2007
Posts: 105067
Lоcаtion: Киев (Kyiv, UA)
Age: 45
Name: Andrey
И всё же. Хотелось бы получить рип без этого вот мелкого щелчка :crazy:

Thanks in advance :thanx: =)

_________________


Top
 Profile E-mail  
 
 
PostPosted: 31 Oct 2011 
Хиппей (support team)
User avatar
Joined: 30 Jul 2007
Posts: 105067
Lоcаtion: Киев (Kyiv, UA)
Age: 45
Name: Andrey
spiralarch wrote:
по меньшей мере три человека до Михаила рипнули этот альбом - и все четыре (считая и этот рип) результата идентичны.

Олег, остальных троих можешь назвать? И поделиться хотя бы одним таким рипом от этих троих.

_________________


Top
 Profile E-mail  
 
 
PostPosted: 31 Oct 2011 
Прокъмитолист
User avatar
Joined: 12 Aug 2007
Posts: 6417
Lоcаtion: Санктъ-Петербуркъ
Age: 50
Name: Олекъ
йумар? ога, панимайт :crazy:

_________________
прокъметол - это музыко, от которово есть прок (ы)


Top
 Profile  
 
 
PostPosted: 31 Oct 2011 
Хиппей (support team)
User avatar
Joined: 30 Jul 2007
Posts: 105067
Lоcаtion: Киев (Kyiv, UA)
Age: 45
Name: Andrey
Не-а, я серьезно. Кто еще в Сеть этот альбом выкладывал?
Именно это переиздание с бонусом?
Или ты сравнивал флак, вав и мп3? :crazy:

_________________


Top
 Profile E-mail  
 
 
PostPosted: 31 Oct 2011 
Прокъмитолист
User avatar
Joined: 12 Aug 2007
Posts: 6417
Lоcаtion: Санктъ-Петербуркъ
Age: 50
Name: Олекъ
Scatterbrain wrote:
Кто еще в Сеть этот альбом выкладывал?

тебе фамилии нужны? или адреса? буагага, жжош :crazy: :true:

_________________
прокъметол - это музыко, от которово есть прок (ы)


Top
 Profile  
 
Display posts from previous:  Sort by  
Post new topic Reply to topic  [ 40 posts ]  Go to page 1, 2  Next

All times are UTC + 3 hours


Who is online

Users browsing this forum: No registered users and 1 guest


You cannot post new topics in this forum
You cannot reply to topics in this forum
You cannot edit your posts in this forum
You cannot delete your posts in this forum
You cannot post attachments in this forum

Search for:
Яндекс.Метрика
Powered by phpBB © 2000, 2002, 2005, 2007 phpBB Group