\m/ 80's metal \m/

Информационно-аналитический форум "80 см пыли" (In Search We Trust) "У нас никто никуда не спешит"
Me For You - http://me-4u.com
It is currently 28 Oct 2020

All times are UTC + 3 hours

Spoiler
Chat - temporary registration for foreign users (please leave your application here)







Post new topic Reply to topic  [ 6 posts ] 
Author Message
 
PostPosted: 21 Aug 2010 
ыыыы
User avatar
Joined: 17 May 2009
Posts: 952
Lоcаtion: Пушкино, МО
Age: 42
Name: Дмитрий
Image


Жанр: Hard Rock
Происхождение исполнителя: Швеция
Год издания: 1992
Год издания данного носителя: 1992
Страна-производитель носителя: Япония
Аудио кодек: FLAC
Тип рипа: image+.cue
Битрейт аудио: lossless
Продолжительность: 68:48
Рип: Собственный
Лейбл: ELEKTRA/WEA
Каталоговый номер: WMC5-480
Матрица: WMC5-480 1 (SONY)

Треклист:
1. Perpetual 04:14
2. Dragonfly 04:49
3. Teaser 03:30
4. How Many Miles to Babylon 06:11
5. Cry No More 05:18
6. No Mercy 05:33
7. C'est la Vie 05:20
8. Leviathan 04:25
9. Fire and Ice 04:31
10. Forever Is a Long Time 04:28
11. I'm My Own Enemy 06:10
12. All I Want Is Everything 04:02
13. Golden Dawn 01:29
14. Final Curtain 04:47
15. Broken Glass 04:03

"Куй"
REM GENRE "Hard Rock"
REM DATE 1992
REM DISCID DD10200F
REM COMMENT "ExactAudioCopy v0.99pb5"
PERFORMER "Yngwie Malmsteen"
TITLE "Fire And Ice [WMC5-480]"
FILE "Yngwie Malmsteen - Fire And Ice [WMC5-480].flac" WAVE
TRACK 01 AUDIO
TITLE "Perpetual"
PERFORMER "Yngwie Malmsteen"
INDEX 01 00:00:00
TRACK 02 AUDIO
TITLE "Dragonfly"
PERFORMER "Yngwie Malmsteen"
INDEX 01 04:14:05
TRACK 03 AUDIO
TITLE "Teaser"
PERFORMER "Yngwie Malmsteen"
INDEX 01 09:03:30
TRACK 04 AUDIO
TITLE "How Many Miles To Babylon"
PERFORMER "Yngwie Malmsteen"
INDEX 01 12:33:02
TRACK 05 AUDIO
TITLE "Cry No More"
PERFORMER "Yngwie Malmsteen"
INDEX 01 18:44:00
TRACK 06 AUDIO
TITLE "No Mercy"
PERFORMER "Yngwie Malmsteen"
INDEX 01 24:01:50
TRACK 07 AUDIO
TITLE "C'est La Vie"
PERFORMER "Yngwie Malmsteen"
INDEX 01 29:34:15
TRACK 08 AUDIO
TITLE "Leviathan"
PERFORMER "Yngwie Malmsteen"
INDEX 00 34:52:67
INDEX 01 34:53:72
TRACK 09 AUDIO
TITLE "Fire And Ice"
PERFORMER "Yngwie Malmsteen"
INDEX 01 39:18:47
TRACK 10 AUDIO
TITLE "Forever Is A Long Time"
PERFORMER "Yngwie Malmsteen"
INDEX 01 43:49:52
TRACK 11 AUDIO
TITLE "I'm My Own Enemy"
PERFORMER "Yngwie Malmsteen"
INDEX 00 48:16:45
INDEX 01 48:17:57
TRACK 12 AUDIO
TITLE "All I Want Is Everything"
PERFORMER "Yngwie Malmsteen"
INDEX 01 54:27:35
TRACK 13 AUDIO
TITLE "Golden Dawn"
PERFORMER "Yngwie Malmsteen"
INDEX 00 58:28:62
INDEX 01 58:29:60
TRACK 14 AUDIO
TITLE "Final Curtain"
PERFORMER "Yngwie Malmsteen"
INDEX 01 59:58:52
TRACK 15 AUDIO
TITLE "Broken Glass"
PERFORMER "Yngwie Malmsteen"
INDEX 01 64:45:40


"Лог"
Exact Audio Copy V0.99 prebeta 5 from 4. May 2009

Отчёт EAC об извлечении, выполненном 9. марта 2010, 1:14

Yngwie Malmsteen / Fire And Ice [WMC5-480]

Дисковод: MATSHITADVD-RAM UJ-850S Adapter: 0 ID: 0

Режим чтения : Достоверность
Использование точного потока : Да
Отключение кэша аудио : Да
Использование указателей C2 : Нет

Коррекция смещения при чтении : 102
Способность читать области Lead-in и Lead-out : Нет
Заполнение пропущенных сэмплов тишиной : Да
Удаление блоков с тишиной в начале и конце : Нет
При вычислениях CRC использовались нулевые сэмплы : Нет
Интерфейс : Установленный внешний ASPI-интерфейс

Выходной формат : Пользовательский кодировщик
Выбранный битрейт : 128 kBit/s
Качество : Высокий
Добавление ID3-тэга : Нет
Утилита сжатия : C:\Program Files\Exact Audio Copy\Flac\flac.exe
Дополнительные параметры : -6 -V -T "artist=%a" -T "title=%t" -T "album=%g" -T "date=%y" -T "tracknumber=%n" -T "genre=%m" -T "comment=EAC 0.9beta4 / FLAC 1.1.0 q6" %s


TOC извлечённого CD

Трек | Старт | Длительность | Начальный сектор | Конечный сектор
---------------------------------------------------------------------
1 | 0:00.00 | 4:14.05 | 0 | 19054
2 | 4:14.05 | 4:49.25 | 19055 | 40754
3 | 9:03.30 | 3:29.47 | 40755 | 56476
4 | 12:33.02 | 6:10.73 | 56477 | 84299
5 | 18:44.00 | 5:17.50 | 84300 | 108124
6 | 24:01.50 | 5:32.40 | 108125 | 133064
7 | 29:34.15 | 5:19.57 | 133065 | 157046
8 | 34:53.72 | 4:24.50 | 157047 | 176896
9 | 39:18.47 | 4:31.05 | 176897 | 197226
10 | 43:49.52 | 4:28.05 | 197227 | 217331
11 | 48:17.57 | 6:09.53 | 217332 | 245059
12 | 54:27.35 | 4:02.25 | 245060 | 263234
13 | 58:29.60 | 1:28.67 | 263235 | 269901
14 | 59:58.52 | 4:46.63 | 269902 | 291414
15 | 64:45.40 | 4:02.62 | 291415 | 309626


Характеристики диапазона извлечения и сообщения об ошибках

Выбранный диапазон

Имя файла Z:\Музыка\Yngwie Malmsteen's Rising Force\1992 Fire & Ice\Yngwie Malmsteen - Fire And Ice [WMC5-480].wav

Пиковый уровень 100.0 %
Качество диапазона 100.0 %
CRC копии 61A3905D
Копирование... OK

Ошибок не произошло


AccurateRip: сводка

Трек 1 точное извлечение (доверие 1) [DDF50128]
Трек 2 точное извлечение (доверие 1) [2856A743]
Трек 3 точное извлечение (доверие 1) [88B84777]
Трек 4 точное извлечение (доверие 1) [FFD8AFFE]
Трек 5 точное извлечение (доверие 1) [6DA34981]
Трек 6 точное извлечение (доверие 1) [AAA09699]
Трек 7 точное извлечение (доверие 1) [D960DEAC]
Трек 8 точное извлечение (доверие 1) [D3F1213E]
Трек 9 точное извлечение (доверие 1) [1A9D803D]
Трек 10 точное извлечение (доверие 1) [7B7BCA8F]
Трек 11 точное извлечение (доверие 1) [DEA81A2E]
Трек 12 точное извлечение (доверие 1) [40E1E117]
Трек 13 точное извлечение (доверие 1) [97EF0E21]
Трек 14 точное извлечение (доверие 1) [86B96F28]
Трек 15 точное извлечение (доверие 1) [DB4CE415]

Все треки извлечены точно

Конец отчёта


Состав:
Yngwie J. Malmsteen: All electric and acoustic guitars, sitar, Taurus Bass
Pedals, and backing vocals
Goran Edman: Vocals
Mats Olausson: Keyboards
Svante Henryson: Elecric bass, contra bass, and cello
Bo Werner: Drums and backing vocals

WMC5-480

_________________
Витасу до Даймонда как Алсу до Руссоса | При переразмещении - спрашивать разрешение!!


Top
 Profile  
 
 
PostPosted: 21 Aug 2010 
Труъ
User avatar
Joined: 14 Jul 2010
Posts: 104
Lоcаtion: Украина, Донецк
Age: 35
Name: Санёк
Любимый альбом маэстро! Спасибо :true:

_________________
Rock 'N' Roll is the only thing that keeps me from breaking apart (c)


Top
 Profile E-mail  
 
 
PostPosted: 21 Aug 2010 
Хиппей (support team)
User avatar
Joined: 30 Jul 2007
Posts: 119444
Lоcаtion: Киев (Kyiv, UA)
Age: 47
Name: Andrey
:thanx:

_________________


Top
 Profile E-mail  
 
 
PostPosted: 21 Aug 2010 
Персональный статус
Joined: 14 May 2010
Posts: 236
Age: 39
Name: Денис
:true: :true: :true:


Top
 Profile  
 
 
PostPosted: 21 Aug 2010 
А может смените мне статус?..
User avatar
Joined: 24 Dec 2008
Posts: 661
Age: 46
Name: Дмитрий
Спасибо.


Top
 Profile  
 
 
PostPosted: 25 Aug 2010 
Power Metal Maniac
User avatar
Joined: 09 Aug 2008
Posts: 7240
Lоcаtion: Москва
Age: 42
Name: Егор
по началу альбом не нравился, казался затянутым и занудным, спустя несколько лет расслушал - хороший диск оказался. Но давно уже не переслушивал. За японца с бонусом спасибо! :thanx:
не забыть скачать!

_________________
Long Live Metal!


Top
 Profile  
 
Display posts from previous:  Sort by  
Post new topic Reply to topic  [ 6 posts ] 

All times are UTC + 3 hours


Who is online

Users browsing this forum: No registered users and 3 guests


You cannot post new topics in this forum
You cannot reply to topics in this forum
You cannot edit your posts in this forum
You cannot delete your posts in this forum
You cannot post attachments in this forum

Search for:
Яндекс.Метрика
Powered by phpBB © 2000, 2002, 2005, 2007 phpBB Group