\m/ 80's metal \m/

Информационно-аналитический форум "80 см пыли" (In Search We Trust) "У нас никто никуда не спешит"
Me For You - http://me-4u.com
It is currently 29 Oct 2020

All times are UTC + 3 hours

Spoiler
Chat - temporary registration for foreign users (please leave your application here)







Post new topic Reply to topic  [ 7 posts ] 
Author Message
 
PostPosted: 21 Aug 2010 
ыыыы
User avatar
Joined: 17 May 2009
Posts: 952
Lоcаtion: Пушкино, МО
Age: 42
Name: Дмитрий
Image


Жанр: Hard Rock
Происхождение исполнителя: Швеция
Год издания: 1988
Год издания данного носителя: 1988
Страна-производитель носителя: Япония
Аудио кодек: FLAC
Тип рипа: image+.cue
Битрейт аудио: lossless
Продолжительность: 50:42
Рип: Собственный
Лейбл: POLYDOR K.K.
Каталоговый номер: P32P-20150
Матрица: P32P-20150 2 (SONY)

Треклист:
1. Rising Force 04:25
2. Hold On 05:10
3. Heaven Tonight 04:07
4. Dreaming (Tell Me) 05:23
5. Bite the Bullet 01:36
6. Riot in the Dungeons 04:23
7. Deja Vu 04:17
8. Crystal Ball 04:57
9. Now Is the Time 04:34
10. Faster than the Speed of Light 04:31
11. Krakatau 06:06
12. Memories 01:13

"Куй"
REM GENRE "Heavy Metal"
REM DATE 1988
REM DISCID 980BE20C
REM COMMENT "ExactAudioCopy v0.99pb5"
PERFORMER "Yngwie Malmsteen"
TITLE "Odyssey [P32P-20150]"
FILE "Yngwie Malmsteen - Odyssey [P32P-20150].flac" WAVE
TRACK 01 AUDIO
TITLE "Rising Force"
PERFORMER "Yngwie Malmsteen"
INDEX 01 00:00:00
TRACK 02 AUDIO
TITLE "Hold On"
PERFORMER "Yngwie Malmsteen"
INDEX 01 04:24:57
TRACK 03 AUDIO
TITLE "Heaven Tonight"
PERFORMER "Yngwie Malmsteen"
INDEX 00 09:34:57
INDEX 01 09:35:00
TRACK 04 AUDIO
TITLE "Dreaming (Tell Me)"
PERFORMER "Yngwie Malmsteen"
INDEX 00 13:42:25
INDEX 01 13:42:32
TRACK 05 AUDIO
TITLE "Bite The Bullet"
PERFORMER "Yngwie Malmsteen"
INDEX 00 19:03:25
INDEX 01 19:05:02
TRACK 06 AUDIO
TITLE "Riot In The Dungeons"
PERFORMER "Yngwie Malmsteen"
INDEX 01 20:40:47
TRACK 07 AUDIO
TITLE "Deja Vu"
PERFORMER "Yngwie Malmsteen"
INDEX 00 25:03:42
INDEX 01 25:04:00
TRACK 08 AUDIO
TITLE "Crystal Ball"
PERFORMER "Yngwie Malmsteen"
INDEX 00 29:20:45
INDEX 01 29:21:37
TRACK 09 AUDIO
TITLE "Now Is The Time"
PERFORMER "Yngwie Malmsteen"
INDEX 00 34:17:50
INDEX 01 34:18:15
TRACK 10 AUDIO
TITLE "Faster Than The Speed Of Light"
PERFORMER "Yngwie Malmsteen"
INDEX 01 38:52:35
TRACK 11 AUDIO
TITLE "Krakatau"
PERFORMER "Yngwie Malmsteen"
INDEX 01 43:23:02
TRACK 12 AUDIO
TITLE "Memories"
PERFORMER "Yngwie Malmsteen"
INDEX 01 49:29:12


"Лог"
Exact Audio Copy V0.99 prebeta 5 from 4. May 2009

Отчёт EAC об извлечении, выполненном 18. апреля 2010, 21:53

Yngwie Malmsteen / Odyssey [P32P-20150]

Дисковод: MATSHITADVD-RAM UJ-850S Adapter: 0 ID: 0

Режим чтения : Достоверность
Использование точного потока : Да
Отключение кэша аудио : Да
Использование указателей C2 : Нет

Коррекция смещения при чтении : 102
Способность читать области Lead-in и Lead-out : Нет
Заполнение пропущенных сэмплов тишиной : Да
Удаление блоков с тишиной в начале и конце : Нет
При вычислениях CRC использовались нулевые сэмплы : Да
Интерфейс : Установленный внешний ASPI-интерфейс

Выходной формат : Пользовательский кодировщик
Выбранный битрейт : 128 kBit/s
Качество : Высокий
Добавление ID3-тэга : Нет
Утилита сжатия : C:\Program Files\Exact Audio Copy\Flac\flac.exe
Дополнительные параметры : -6 -V -T "artist=%a" -T "title=%t" -T "album=%g" -T "date=%y" -T "tracknumber=%n" -T "genre=%m" -T "comment=EAC 0.99beta5 / FLAC 1.1.0 q6" %s


TOC извлечённого CD

Трек | Старт | Длительность | Начальный сектор | Конечный сектор
---------------------------------------------------------------------
1 | 0:00.00 | 4:24.57 | 0 | 19856
2 | 4:24.57 | 5:10.18 | 19857 | 43124
3 | 9:35.00 | 4:07.32 | 43125 | 61681
4 | 13:42.32 | 5:22.45 | 61682 | 85876
5 | 19:05.02 | 1:35.45 | 85877 | 93046
6 | 20:40.47 | 4:23.28 | 93047 | 112799
7 | 25:04.00 | 4:17.37 | 112800 | 132111
8 | 29:21.37 | 4:56.53 | 132112 | 154364
9 | 34:18.15 | 4:34.20 | 154365 | 174934
10 | 38:52.35 | 4:30.42 | 174935 | 195226
11 | 43:23.02 | 6:06.10 | 195227 | 222686
12 | 49:29.12 | 1:13.18 | 222687 | 228179


Характеристики диапазона извлечения и сообщения об ошибках

Выбранный диапазон

Имя файла Y:\Музыка\Yngwie Malmsteen's Rising Force\1988 Odyssey\Yngwie Malmsteen - Odyssey [P32P-20150].wav

Пиковый уровень 97.7 %
Качество диапазона 100.0 %
CRC копии 96FF0D19
Копирование... OK

Ошибок не произошло


AccurateRip: сводка

Трек 1 нет в базе данных
Трек 2 нет в базе данных
Трек 3 нет в базе данных
Трек 4 нет в базе данных
Трек 5 нет в базе данных
Трек 6 нет в базе данных
Трек 7 нет в базе данных
Трек 8 нет в базе данных
Трек 9 нет в базе данных
Трек 10 нет в базе данных
Трек 11 нет в базе данных
Трек 12 нет в базе данных

Ни одного трека нет в базе AccurateRip

Конец отчёта


Состав:
Yngwie J. Malmsteen: All electric and acoustic guitars ; all bass guitars except as noted below
Joe Lynn Turner: Vocals
Jens Johansson: All keyboards
Bob Daisley: Bass guitars on 'Rising Force,' 'Hold On,' 'Crystal Ball', 'Now Is the Time'
Anders Johansson: Drums

P32P-20150

_________________
Витасу до Даймонда как Алсу до Руссоса | При переразмещении - спрашивать разрешение!!


Top
 Profile  
 
 
PostPosted: 21 Aug 2010 
Персональный статус
Joined: 14 May 2010
Posts: 236
Age: 39
Name: Денис
Вах!


Top
 Profile  
 
 
PostPosted: 21 Aug 2010 
Труъ
User avatar
Joined: 14 Jul 2010
Posts: 104
Lоcаtion: Украина, Донецк
Age: 35
Name: Санёк
Спасибо, давно ждал :true: :true: :true:

_________________
Rock 'N' Roll is the only thing that keeps me from breaking apart (c)


Top
 Profile E-mail  
 
 
PostPosted: 21 Aug 2010 
Хиппей (support team)
User avatar
Joined: 30 Jul 2007
Posts: 119447
Lоcаtion: Киев (Kyiv, UA)
Age: 47
Name: Andrey
Уррааа :true:
Спасибо, перемещаю :thanx:

_________________


Top
 Profile E-mail  
 
 
PostPosted: 21 Aug 2010 
Персональный статус
Joined: 14 May 2010
Posts: 236
Age: 39
Name: Денис
iezuit
разместил в "другом" месте без спроса (все три). :crazy: жду когда поставят значок "повтор" :true:


Top
 Profile  
 
 
PostPosted: 21 Aug 2010 
ыыыы
User avatar
Joined: 17 May 2009
Posts: 952
Lоcаtion: Пушкино, МО
Age: 42
Name: Дмитрий
ага, видел ))) хорошо смотрятся! :true: :meloman:

_________________
Витасу до Даймонда как Алсу до Руссоса | При переразмещении - спрашивать разрешение!!


Top
 Profile  
 
 
PostPosted: 21 Aug 2010 
А может смените мне статус?..
User avatar
Joined: 24 Dec 2008
Posts: 661
Age: 46
Name: Дмитрий
Спасибо, обновлю.


Top
 Profile  
 
Display posts from previous:  Sort by  
Post new topic Reply to topic  [ 7 posts ] 

All times are UTC + 3 hours


Who is online

Users browsing this forum: No registered users and 2 guests


You cannot post new topics in this forum
You cannot reply to topics in this forum
You cannot edit your posts in this forum
You cannot delete your posts in this forum
You cannot post attachments in this forum

Search for:
Яндекс.Метрика
Powered by phpBB © 2000, 2002, 2005, 2007 phpBB Group