\m/ 80's metal \m/

Информационно-аналитический форум "80 см пыли" (In Search We Trust) "У нас никто никуда не спешит"
Me For You - http://me-4u.com
It is currently 26 Oct 2020

All times are UTC + 3 hours

Spoiler
Chat - temporary registration for foreign users (please leave your application here)







Post new topic Reply to topic  [ 9 posts ] 
Author Message
 
PostPosted: 21 Feb 2016 
Работнечег
User avatar
Joined: 28 Aug 2007
Posts: 6363
Lоcаtion: г. Москва
Age: 31
Name: Дима
Image

Label: Hellhound Recordings
Genre: Heavy Metal with Doom influence
Country: UK
Format: Flac + Log + Cue + Covers
Size: 279 Mb

Line-Up:
Murray Geddes - Bass (Misericorde)
Mike Unsworth - Drums (ex-Valle Crucis)
Mark Griffiths - Guitars (Arkazum, ex-Blackstar, ex-Cathedral)
Russ McAteer - Vocals


Tracklist:
1. Prefall 00:33 instrumental
2. Planetfall 03:36
3. Headache Station 03:18
4. Harsh Believing 04:35
5. Civilization Dreaming 01:41 instrumental
6. Wishing Horse 06:06
7. Year Zero 02:29
8. Evergreen 06:40
9. Shining Violent 02:41
10. Invention of God 03:58
11. An Eternal Dawn 05:39

LOG
Exact Audio Copy V0.99 prebeta 5 from 4. May 2009

EAC extraction logfile from 17. January 2016, 19:08

Year Zero / Nihil's Flame

Used drive : PIONEER DVD-RW DVR-221 Adapter: 2 ID: 1

Read mode : Secure
Utilize accurate stream : Yes
Defeat audio cache : Yes
Make use of C2 pointers : No

Read offset correction : 6
Overread into Lead-In and Lead-Out : No
Fill up missing offset samples with silence : Yes
Delete leading and trailing silent blocks : No
Null samples used in CRC calculations : Yes
Used interface : Native Win32 interface for Win NT & 2000

Used output format : User Defined Encoder
Selected bitrate : 32 kBit/s
Quality : High
Add ID3 tag : No
Command line compressor : C:\Program Files\Exact Audio Copy\Flac\flac.exe
Additional command line options : -6 -V %s


TOC of the extracted CD

Track | Start | Length | Start sector | End sector
---------------------------------------------------------
1 | 0:00.00 | 0:33.27 | 0 | 2501
2 | 0:33.27 | 3:35.70 | 2502 | 18696
3 | 4:09.22 | 3:18.25 | 18697 | 33571
4 | 7:27.47 | 4:35.63 | 33572 | 54259
5 | 12:03.35 | 1:41.37 | 54260 | 61871
6 | 13:44.72 | 6:06.13 | 61872 | 89334
7 | 19:51.10 | 2:29.67 | 89335 | 100576
8 | 22:21.02 | 6:40.05 | 100577 | 130581
9 | 29:01.07 | 2:41.10 | 130582 | 142666
10 | 31:42.17 | 3:58.60 | 142667 | 160576
11 | 35:41.02 | 5:39.58 | 160577 | 186059


Range status and errors

Selected range

Filename D:\Музыка\Lossless\Year Zero - Nihil's Flame (1993)\Year Zero - Nihil's Flame.wav

Peak level 100.0 %
Range quality 100.0 %
Copy CRC C4B07F28
Copy OK

No errors occurred


AccurateRip summary

Track 1 not present in database
Track 2 not present in database
Track 3 not present in database
Track 4 not present in database
Track 5 not present in database
Track 6 not present in database
Track 7 not present in database
Track 8 not present in database
Track 9 not present in database
Track 10 not present in database
Track 11 not present in database

None of the tracks are present in the AccurateRip database

End of status report

CUE
REM GENRE "Doom Metal"
REM DATE 1993
REM DISCID 8109B00B
REM COMMENT "ExactAudioCopy v0.99pb5"
PERFORMER "Year Zero"
TITLE "Nihil's Flame"
FILE "Year Zero - Nihil's Flame.flac" WAVE
TRACK 01 AUDIO
TITLE "Prefall (Intro)"
PERFORMER "Year Zero"
INDEX 01 00:00:00
TRACK 02 AUDIO
TITLE "Planetfall"
PERFORMER "Year Zero"
INDEX 01 00:33:27
TRACK 03 AUDIO
TITLE "Headache Station"
PERFORMER "Year Zero"
INDEX 00 04:06:47
INDEX 01 04:09:22
TRACK 04 AUDIO
TITLE "Harsh Believing"
PERFORMER "Year Zero"
INDEX 00 07:25:15
INDEX 01 07:27:47
TRACK 05 AUDIO
TITLE "Civilisation Dreaming"
PERFORMER "Year Zero"
INDEX 00 12:00:67
INDEX 01 12:03:35
TRACK 06 AUDIO
TITLE "Wishing Horse"
PERFORMER "Year Zero"
INDEX 01 13:44:72
TRACK 07 AUDIO
TITLE "Year Zero"
PERFORMER "Year Zero"
INDEX 00 19:49:00
INDEX 01 19:51:10
TRACK 08 AUDIO
TITLE "Evergreen (The Fool's Throne)"
PERFORMER "Year Zero"
INDEX 00 22:18:50
INDEX 01 22:21:02
TRACK 09 AUDIO
TITLE "Shining Violent"
PERFORMER "Year Zero"
INDEX 00 28:58:65
INDEX 01 29:01:07
TRACK 10 AUDIO
TITLE "Invention Of God"
PERFORMER "Year Zero"
INDEX 00 31:39:52
INDEX 01 31:42:17
TRACK 11 AUDIO
TITLE "An Eternal Dawn"
PERFORMER "Year Zero"
INDEX 00 35:38:72
INDEX 01 35:41:02


Yadi




Давно я не слушал Cathedral, но музыкально похоже на них, если ничего не путаю :crazy: . А так типично низкий думовый строй гитар, но никакой меланхолии и нет в помине, довольно бодрый хэви/дум! Думаю Лёше Entomologist будет интересно послушать. Альбом не шедевр, но очень неплохой!


Top
 Profile E-mail  
 
 
PostPosted: 21 Feb 2016 
Хиппей (support team)
User avatar
Joined: 30 Jul 2007
Posts: 119421
Lоcаtion: Киев (Kyiv, UA)
Age: 47
Name: Andrey
Ооо! :lob: :lob: :lob: :thanx:

mirror: iFolder l Narod l M-Cloud

_________________


Top
 Profile E-mail  
 
 
PostPosted: 21 Feb 2016 
спирт 100%
User avatar
Joined: 22 Sep 2008
Posts: 4594
Age: 49
Name: Саня
:thanx: Спасибо!


Top
 Profile  
 
 
PostPosted: 21 Feb 2016 
Хиппей (support team)
User avatar
Joined: 30 Jul 2007
Posts: 119421
Lоcаtion: Киев (Kyiv, UA)
Age: 47
Name: Andrey
Альбом под настроение.
Но пару активных песенок сразу понравились :meloman:

_________________


Top
 Profile E-mail  
 
 
PostPosted: 21 Feb 2016 
Доктор энтомологии
User avatar
Joined: 22 Jan 2009
Posts: 10324
Lоcаtion: Даугавпилс
Age: 45
Name: Алексей
:thanx:


Top
 Profile  
 
 
PostPosted: 22 Feb 2016 
Доктор энтомологии
User avatar
Joined: 22 Jan 2009
Posts: 10324
Lоcаtion: Даугавпилс
Age: 45
Name: Алексей
Ничего особого, а слушается приятно :meloman: Действительно такой около-Cathedral-ный дум, только чутка грязноватей и менее аляповатый. Есть еще 1995 альбом у группки. Песенко Harsh Believing могла бы оказаться в альбоме Cathedral тех же примерно годов издания. Спасибо, Дим, за наводочку :drink:


Top
 Profile  
 
 
PostPosted: 22 Feb 2016 
Работнечег
User avatar
Joined: 28 Aug 2007
Posts: 6363
Lоcаtion: г. Москва
Age: 31
Name: Дима
Не за что! Повод Cathedral переслушать :true:


Top
 Profile E-mail  
 
 
PostPosted: 22 Feb 2016 
Прокъмитолист
User avatar
Joined: 12 Aug 2007
Posts: 6776
Lоcаtion: Санктъ-Петербуркъ
Age: 53
Name: Олекъ
:thanx:

_________________
прокъметол - это музыко, от которово есть прок (ы)


Top
 Profile  
 
 
PostPosted: 23 Feb 2016 
Alive Again
User avatar
Joined: 17 Dec 2008
Posts: 4750
Lоcаtion: Курск Воронеж Оскол
Age: 46
Name: Дмитрий
:thanx:


Top
 Profile E-mail  
 
Display posts from previous:  Sort by  
Post new topic Reply to topic  [ 9 posts ] 

All times are UTC + 3 hours


Who is online

Users browsing this forum: No registered users and 1 guest


You cannot post new topics in this forum
You cannot reply to topics in this forum
You cannot edit your posts in this forum
You cannot delete your posts in this forum
You cannot post attachments in this forum

Search for:
Яндекс.Метрика
Powered by phpBB © 2000, 2002, 2005, 2007 phpBB Group