\m/ 80's metal \m/

Информационно-аналитический форум "80 см пыли" (In Search We Trust) "У нас никто никуда не спешит"
Me For You - http://me-4u.com
It is currently 26 Oct 2020

All times are UTC + 3 hours

Spoiler
Chat - temporary registration for foreign users (please leave your application here)







Post new topic Reply to topic  [ 14 posts ] 
Author Message
 
PostPosted: 29 Apr 2012 
Работнечег
User avatar
Joined: 28 Aug 2007
Posts: 6363
Lоcаtion: г. Москва
Age: 31
Name: Дима
Image

Band: Yuma
Album: Keep On Rockin' (Compilation)
Year: 2007
Label: Gama
Genre: Hard Rock
Coutry: Germany
Format: Flac + Log + Cue + Covers / MP3@320 kbps + Covers
Size: 467 Mb/ 159 Mb

Line-Up 2007:
Harald Nawrocki - Vocals & Guitars
Andreas Schmitt - Lead Guitar
Bac Pfister - Bass
Stefan Paulus - Drums
Andreas Meyer - Guitar on tracks 8 & 10


Tracklist:
1. Hands Up 3:15
2. Break The Law 4:23
3. No More Lonely Nights 5:25
4. Heat Beat 3:45
5. Feel It 3:22
6. Keep On Rockin 4:00
7. Pirates 5:12
8. Hey You 4:18
9. The Gambler 5:06
10. Nightrider 4:13
11. Sometimes 5:53
12. Fall Down 5:03
13. Bonus Track - Live & Unpublished 4:21 Bonus Track Live
14. Bonus Track - Live & Unpublished 5:31 Bonus Track Live
15. Bonus Track - Live & Unpublished 5:33 Bonus Track Live

LOG
Exact Audio Copy V0.99 prebeta 5 from 4. May 2009

EAC extraction logfile from 18. April 2012, 0:04

Yuma / Keep On Rockin' (Compilation)

Used drive : PIONEER DVD-RW DVR-116D Adapter: 0 ID: 0

Read mode : Secure
Utilize accurate stream : Yes
Defeat audio cache : Yes
Make use of C2 pointers : No

Read offset correction : 96
Overread into Lead-In and Lead-Out : No
Fill up missing offset samples with silence : Yes
Delete leading and trailing silent blocks : No
Null samples used in CRC calculations : Yes
Used interface : Native Win32 interface for Win NT & 2000

Used output format : User Defined Encoder
Selected bitrate : 32 kBit/s
Quality : High
Add ID3 tag : No
Command line compressor : C:\Program Files\Exact Audio Copy\Flac\flac.exe
Additional command line options : -6 -V %s


TOC of the extracted CD

Track | Start | Length | Start sector | End sector
---------------------------------------------------------
1 | 0:00.00 | 3:15.15 | 0 | 14639
2 | 3:15.15 | 4:24.27 | 14640 | 34466
3 | 7:39.42 | 4:27.46 | 34467 | 54537
4 | 12:07.13 | 3:45.30 | 54538 | 71442
5 | 15:52.43 | 3:21.60 | 71443 | 86577
6 | 19:14.28 | 3:59.55 | 86578 | 104557
7 | 23:14.08 | 5:12.29 | 104558 | 127986
8 | 28:26.37 | 4:18.40 | 127987 | 147376
9 | 32:45.02 | 5:05.53 | 147377 | 170304
10 | 37:50.55 | 4:13.13 | 170305 | 189292
11 | 42:03.68 | 5:52.60 | 189293 | 215752
12 | 47:56.53 | 5:03.19 | 215753 | 238496
13 | 52:59.72 | 4:21.22 | 238497 | 258093
14 | 57:21.19 | 5:31.38 | 258094 | 282956
15 | 62:52.57 | 5:32.63 | 282957 | 307919


Range status and errors

Selected range

Filename D:\Музыка\Lossless\Yuma - Keep On Rockin' (2007)\Yuma - Keep On Rockin' (Compilation).wav

Peak level 100.0 %
Range quality 99.9 %
Copy CRC 37E6A867
Copy OK

No errors occurred


AccurateRip summary

Track 1 not present in database
Track 2 not present in database
Track 3 not present in database
Track 4 not present in database
Track 5 not present in database
Track 6 not present in database
Track 7 not present in database
Track 8 not present in database
Track 9 not present in database
Track 10 not present in database
Track 11 not present in database
Track 12 not present in database
Track 13 not present in database
Track 14 not present in database
Track 15 not present in database

None of the tracks are present in the AccurateRip database

End of status report

CUE
REM GENRE "Heavy Metal"
REM DATE 2007
REM DISCID ED10090F
REM COMMENT "ExactAudioCopy v0.99pb5"
PERFORMER "Yuma"
TITLE "Keep On Rockin' (Compilation)"
FILE "Yuma - Keep On Rockin' (Compilation).flac" WAVE
TRACK 01 AUDIO
TITLE "Heads Up"
PERFORMER "Yuma"
INDEX 01 00:00:00
TRACK 02 AUDIO
TITLE "Break The Law"
PERFORMER "Yuma"
INDEX 01 03:15:15
TRACK 03 AUDIO
TITLE "No More Lonely Nights"
PERFORMER "Yuma"
INDEX 01 07:39:42
TRACK 04 AUDIO
TITLE "Heart Beat"
PERFORMER "Yuma"
INDEX 01 12:07:13
TRACK 05 AUDIO
TITLE "Feel It"
PERFORMER "Yuma"
INDEX 01 15:52:43
TRACK 06 AUDIO
TITLE "Keep On Rockin"
PERFORMER "Yuma"
INDEX 01 19:14:28
TRACK 07 AUDIO
TITLE "Pirates"
PERFORMER "Yuma"
INDEX 01 23:14:08
TRACK 08 AUDIO
TITLE "Hey You"
PERFORMER "Yuma"
INDEX 01 28:26:37
TRACK 09 AUDIO
TITLE "The Gambler"
PERFORMER "Yuma"
INDEX 01 32:45:02
TRACK 10 AUDIO
TITLE "Nightrider"
PERFORMER "Yuma"
INDEX 01 37:50:55
TRACK 11 AUDIO
TITLE "Sometimes"
PERFORMER "Yuma"
INDEX 01 42:03:68
TRACK 12 AUDIO
TITLE "Fall Down"
PERFORMER "Yuma"
INDEX 01 47:56:53
TRACK 13 AUDIO
TITLE "Bonus Track (Live & Unpublished)"
PERFORMER "Yuma"
INDEX 01 52:59:72
TRACK 14 AUDIO
TITLE "Bonus Track (Live & Unpublished)"
PERFORMER "Yuma"
INDEX 01 57:21:19
TRACK 15 AUDIO
TITLE "Bonus Track (Live & Unpublished)"
PERFORMER "Yuma"
INDEX 01 62:52:57

Spectrum
Image



MP3@320kbps
FLAC

Альбом не будет лишним в коллекции, мне понравилось практически всё :true:
За возможность ознакомления говорим спасибо Саше spryt777! :thanx:


Top
 Profile E-mail  
 
 
PostPosted: 29 Apr 2012 
хард н хэвщик (support team)
User avatar
Joined: 02 Jun 2008
Posts: 16881
Lоcаtion: Н.Новгород
Age: 33
Name: Артем
крутяк, спасибо парни! :true:


Top
 Profile  
 
 
PostPosted: 29 Apr 2012 
хард н хэвщик (support team)
User avatar
Joined: 02 Jun 2008
Posts: 16881
Lоcаtion: Н.Новгород
Age: 33
Name: Артем
жаль, такой скудный буклет :(


Top
 Profile  
 
 
PostPosted: 29 Apr 2012 
Работнечег
User avatar
Joined: 28 Aug 2007
Posts: 6363
Lоcаtion: г. Москва
Age: 31
Name: Дима
McKagan wrote:
жаль, такой скудный буклет :(

Это похоже на селф-релизд) у Overdrive английских такие же "буклеты" были. С другой стороны других вариантов скорее всего не будет ...


Top
 Profile E-mail  
 
 
PostPosted: 29 Apr 2012 
хард н хэвщик (support team)
User avatar
Joined: 02 Jun 2008
Posts: 16881
Lоcаtion: Н.Новгород
Age: 33
Name: Артем
а внутри - белые странички?


Top
 Profile  
 
 
PostPosted: 29 Apr 2012 
Работнечег
User avatar
Joined: 28 Aug 2007
Posts: 6363
Lоcаtion: г. Москва
Age: 31
Name: Дима
McKagan wrote:
а внутри - белые странички?

у Overdrive да) и бумага толстенная такая, как картон почти ))


Top
 Profile E-mail  
 
 
PostPosted: 29 Apr 2012 
хард н хэвщик (support team)
User avatar
Joined: 02 Jun 2008
Posts: 16881
Lоcаtion: Н.Новгород
Age: 33
Name: Артем
я про Юму =)


Top
 Profile  
 
 
PostPosted: 29 Apr 2012 
Работнечег
User avatar
Joined: 28 Aug 2007
Posts: 6363
Lоcаtion: г. Москва
Age: 31
Name: Дима
ой, вроде да, я уже диск Сашке давно довольно отдал :oops:


Top
 Profile E-mail  
 
 
PostPosted: 29 Apr 2012 
Труъ
User avatar
Joined: 18 Nov 2009
Posts: 126
Lоcаtion: Hellville
Age: 45
Name: Mapeк
спасибо Дима!

yes, sadly bit cheap release but music should be killer!


Top
 Profile E-mail  
 
 
PostPosted: 30 Apr 2012 
Хиппей (support team)
User avatar
Joined: 30 Jul 2007
Posts: 119421
Lоcаtion: Киев (Kyiv, UA)
Age: 47
Name: Andrey
:thanx: :thanx:

mirror: Speedy l MultiUp l Narod

_________________


Top
 Profile E-mail  
 
 
PostPosted: 01 May 2012 
Хиппей (support team)
User avatar
Joined: 30 Jul 2007
Posts: 119421
Lоcаtion: Киев (Kyiv, UA)
Age: 47
Name: Andrey
Второй день слушаю альбом, и всё никак не пойму его. Тоскливо, медленно, малоинтересно и как-то вяловато.
Это среднетемповой германский (ну, здесь только по стране сужу, по звуку чистая Британия) хэви сродни первым работам в стиле NWOBHM + изрядная доля готик-рока (из-за манеры пения вокалиста).

4/10

И два замечания-вопроса, как обычно. Это неофициальная компиляция?
2. Обнаружил два косяка - в конце 4-го трэка дикий щелчок. И чуть меньше в начале 8-го :fingal:
Кому-то нужна версия с вырезанными (заглушенными) щелчками?

_________________


Top
 Profile E-mail  
 
 
PostPosted: 01 May 2012 
Хиппей (support team)
User avatar
Joined: 30 Jul 2007
Posts: 119421
Lоcаtion: Киев (Kyiv, UA)
Age: 47
Name: Andrey
И еще несколько раз переслушал, предварительно покушамши.
Уже лучше :umnik: Есть таки активные песни на альбоме.

Прикол. 3-й трэк - No More Lonely Nights весьма напоминает одну вещь со свежего альбома германского проекта Running Wild :crazy:

_________________


Top
 Profile E-mail  
 
 
PostPosted: 01 May 2012 
Я набрал 1000 сообщений!
User avatar
Joined: 25 Dec 2008
Posts: 1545
Age: 45
Name: Павел
Scatterbrain wrote:
Это неофициальная компиляция?

Это самиздатовский cd-r и музыканты продают его по 8 евро через свой сайт.


Top
 Profile  
 
 
PostPosted: 02 May 2012 
Хиппей (support team)
User avatar
Joined: 30 Jul 2007
Posts: 119421
Lоcаtion: Киев (Kyiv, UA)
Age: 47
Name: Andrey
Ааа точно, посмотрел на скан диска-болванки. Мдя.. Ну хоть так :dance:
Правда логотип Гамы ваще не похож на себя :scratch: Или это типа от фонаря свой лэйбл так назвали?)

_________________


Top
 Profile E-mail  
 
Display posts from previous:  Sort by  
Post new topic Reply to topic  [ 14 posts ] 

All times are UTC + 3 hours


Who is online

Users browsing this forum: No registered users and 1 guest


You cannot post new topics in this forum
You cannot reply to topics in this forum
You cannot edit your posts in this forum
You cannot delete your posts in this forum
You cannot post attachments in this forum

Search for:
Яндекс.Метрика
Powered by phpBB © 2000, 2002, 2005, 2007 phpBB Group