\m/ 80's metal \m/

Информационно-аналитический форум "80 см пыли" (In Search We Trust) "У нас никто никуда не спешит"
Me For You - http://me-4u.com
It is currently 21 Nov 2018

All times are UTC + 3 hours

Spoiler
Chat - temporary registration for foreign users (please leave your application here)







Post new topic Reply to topic  [ 8 posts ] 
Author Message
 
PostPosted: 27 Mar 2011 
Работнечег
User avatar
Joined: 28 Aug 2007
Posts: 5557
Lоcаtion: г. Москва
Age: 29
Name: Дима
Image

Year: 1984
Label: Mausoleum Classix
Genre: NWOBHM
Coutry: UK
Format: Flac + Log + Cue + Covers
Size: 328 Mb

Line-Up:
Vocals : Paul Mario Day
Guitars : Jeff Summers
Guitars : Martin Bushell
Bass :Jeff Brown
Drums : Bruce Bisland


Tracklist:
1. Prelude In F Flat Minor 00:25
2. The Key 04:41
3. Summer Lightning 04:28
4. Gun Runner 04:16
5. Give Me Back Your Heart Again 04:08
6. Nothing Lasts Forever 03:43
7. Natural Selection 04:52
8. Fight Fire With Fire 03:33
9. Blood Money 03:54
10. Passion For The Sun 05:18
11. Screaming In The Night 04:03

LOG
Exact Audio Copy V0.99 prebeta 5 from 4. May 2009

EAC extraction logfile from 20. March 2011, 14:46

Wildfire / Summer Lightning

Used drive : PIONEER DVD-RW DVR-116D Adapter: 0 ID: 0

Read mode : Secure
Utilize accurate stream : Yes
Defeat audio cache : Yes
Make use of C2 pointers : No

Read offset correction : 96
Overread into Lead-In and Lead-Out : No
Fill up missing offset samples with silence : Yes
Delete leading and trailing silent blocks : No
Null samples used in CRC calculations : Yes
Used interface : Native Win32 interface for Win NT & 2000

Used output format : User Defined Encoder
Selected bitrate : 32 kBit/s
Quality : High
Add ID3 tag : No
Command line compressor : C:\Program Files\Exact Audio Copy\Flac\flac.exe
Additional command line options : -6 -V %s


TOC of the extracted CD

Track | Start | Length | Start sector | End sector
---------------------------------------------------------
1 | 0:00.00 | 0:25.20 | 0 | 1894
2 | 0:25.20 | 4:41.60 | 1895 | 23029
3 | 5:07.05 | 4:28.10 | 23030 | 43139
4 | 9:35.15 | 4:16.60 | 43140 | 62399
5 | 13:52.00 | 4:08.52 | 62400 | 81051
6 | 18:00.52 | 3:45.40 | 81052 | 97966
7 | 21:46.17 | 4:53.43 | 97967 | 119984
8 | 26:39.60 | 3:33.15 | 119985 | 135974
9 | 30:13.00 | 3:55.20 | 135975 | 153619
10 | 34:08.20 | 5:19.02 | 153620 | 177546
11 | 39:27.22 | 4:06.10 | 177547 | 196006


Range status and errors

Selected range

Filename D:\Музыка\Lossless\Wildfire - Summer Lightning (1984)\Wildfire - Summer Lightning.wav

Peak level 99.4 %
Range quality 100.0 %
Copy CRC A6D00853
Copy OK

No errors occurred


AccurateRip summary

Track 1 not present in database
Track 2 not present in database
Track 3 not present in database
Track 4 not present in database
Track 5 not present in database
Track 6 not present in database
Track 7 not present in database
Track 8 not present in database
Track 9 not present in database
Track 10 not present in database
Track 11 not present in database

None of the tracks are present in the AccurateRip database

End of status report

CUE
REM GENRE NWOBHM
REM DATE 1984
REM DISCID 820A350B
REM COMMENT "ExactAudioCopy v0.99pb5"
PERFORMER "Wildfire"
TITLE "Summer Lightning"
FILE "Wildfire - Summer Lightning.flac" WAVE
TRACK 01 AUDIO
TITLE "Prelude In F Flat Minor"
PERFORMER "Wildfire"
INDEX 01 00:00:00
TRACK 02 AUDIO
TITLE "The Key"
PERFORMER "Wildfire"
INDEX 01 00:25:20
TRACK 03 AUDIO
TITLE "Summer Lightning"
PERFORMER "Wildfire"
INDEX 01 05:07:05
TRACK 04 AUDIO
TITLE "Gun Runner"
PERFORMER "Wildfire"
INDEX 01 09:35:15
TRACK 05 AUDIO
TITLE "Give Me Back Your Heart"
PERFORMER "Wildfire"
INDEX 00 13:51:40
INDEX 01 13:52:00
TRACK 06 AUDIO
TITLE "Nothing Lasts Forever"
PERFORMER "Wildfire"
INDEX 01 18:00:52
TRACK 07 AUDIO
TITLE "Natural Selection"
PERFORMER "Wildfire"
INDEX 00 21:45:00
INDEX 01 21:46:17
TRACK 08 AUDIO
TITLE "Fight Fire With Fire"
PERFORMER "Wildfire"
INDEX 00 26:39:05
INDEX 01 26:39:60
TRACK 09 AUDIO
TITLE "Blood Money"
PERFORMER "Wildfire"
INDEX 00 30:12:37
INDEX 01 30:13:00
TRACK 10 AUDIO
TITLE "Passion For The Sun"
PERFORMER "Wildfire"
INDEX 00 34:07:32
INDEX 01 34:08:20
TRACK 11 AUDIO
TITLE "Screaming In The Night"
PERFORMER "Wildfire"
INDEX 00 39:26:45
INDEX 01 39:27:22

Spectrum
Image


Narod.Ru


Top
 Profile E-mail  
 
 
PostPosted: 27 Mar 2011 
Пионэръ
Joined: 27 Aug 2010
Posts: 10
Lоcаtion: England
Name: Ken
спасибо!


Top
 Profile E-mail  
 
 
PostPosted: 28 Mar 2011 
Хиппей (support team)
User avatar
Joined: 30 Jul 2007
Posts: 108255
Lоcаtion: Киев (Kyiv, UA)
Age: 45
Name: Andrey
:thanx:

mirror: Narod l M-Cloud

_________________


Top
 Profile E-mail  
 
 
PostPosted: 31 Mar 2011 
metallpaparazzy
User avatar
Joined: 20 Dec 2009
Posts: 674
Lоcаtion: Днепропетровск
Age: 43
Name: Геннадий
:thanx:
клевый музон! :true: паобег за вторым :oops:


Top
 Profile E-mail  
 
 
PostPosted: 06 Oct 2012 
Я набрал 1000 сообщений!
Joined: 24 Oct 2009
Posts: 2102
Lоcаtion: Оренбург
Age: 55
Name: Юра
Спасибо! :thanx:

_________________
:dash: I am happy!


Top
 Profile E-mail  
 
 
PostPosted: 30 Oct 2013 
\m/ 80 см сала \m/
User avatar
Joined: 12 Mar 2012
Posts: 2589
Age: 25
Name: Nick
Mirror: Narod

_________________
1990 AUROPHON BRAINSTORM (Germany) - lossless
1994 MAUSOLEUM CLASSIX (Belgium-Germany) - lossless
1998 VA - GRIM HARVEST - Complete Metal Massacre Volumes I-XII


Top
 Profile  
 
 
PostPosted: 04 Nov 2013 
Почётный металлург
User avatar
Joined: 15 Sep 2007
Posts: 4357
Lоcаtion: Хабаровск
Age: 58
Name: чуть выше
:thanx: :thanx: :thanx:

_________________
Коль будешь людей ты ослами честить,
тебе человеком меж них не прослыть!
(Саади, персидский поэт, 13в.)


Top
 Profile  
 
 
PostPosted: 04 Nov 2013 
Хиппей (support team)
User avatar
Joined: 30 Jul 2007
Posts: 108255
Lоcаtion: Киев (Kyiv, UA)
Age: 45
Name: Andrey
:thanx:

_________________


Top
 Profile E-mail  
 
Display posts from previous:  Sort by  
Post new topic Reply to topic  [ 8 posts ] 

All times are UTC + 3 hours


Who is online

Users browsing this forum: No registered users and 1 guest


You cannot post new topics in this forum
You cannot reply to topics in this forum
You cannot edit your posts in this forum
You cannot delete your posts in this forum
You cannot post attachments in this forum

Search for:
Яндекс.Метрика
Powered by phpBB © 2000, 2002, 2005, 2007 phpBB Group