\m/ 80's metal \m/

Информационно-аналитический форум "80 см пыли" (In Search We Trust) "У нас никто никуда не спешит"
Me For You - http://me-4u.com
It is currently 21 Nov 2018

All times are UTC + 3 hours

Spoiler
Chat - temporary registration for foreign users (please leave your application here)







Post new topic Reply to topic  [ 97 posts ]  Go to page Previous  1, 2, 3, 4, 5  Next
Author Message
 
PostPosted: 10 Feb 2012 
Труъ
Joined: 01 Jan 2010
Posts: 118
Lоcаtion: MetaLWarrioR
Name: Сергей
Да я так и понял Васюнь!

Scatterbrain а можно тогда ссылку в личку?!


Top
 Profile E-mail  
 
 
PostPosted: 10 Feb 2012 
Хиппей (support team)
User avatar
Joined: 30 Jul 2007
Posts: 108255
Lоcаtion: Киев (Kyiv, UA)
Age: 45
Name: Andrey
MetaLWarrioR wrote:
можно тогда ссылку в личку?!

Угу, только там ссылка дохленькая.
Седня у себя гляну.

_________________


Top
 Profile E-mail  
 
 
PostPosted: 10 Feb 2012 
Хиппей (support team)
User avatar
Joined: 30 Jul 2007
Posts: 108255
Lоcаtion: Киев (Kyiv, UA)
Age: 45
Name: Andrey
MetaLWarrioR wrote:
Ой, а я там регистрировался! Правда, ничерта не понял!
Вот этот альбом:
Image
Нажимаю, получаю вот это:
Image
Что это такое?!

Жмакай на Upload Form и грузи им альбомы. Предварительно пошастав по поиску. Или в разделах Dead Links :dance:

_________________


Top
 Profile E-mail  
 
 
PostPosted: 10 Feb 2012 
Труъ
Joined: 01 Jan 2010
Posts: 118
Lоcаtion: MetaLWarrioR
Name: Сергей
Quote:
Жмакай на Upload Form и грузи им альбомы. Предварительно пошастав по поиску. Или в разделах Dead Links

Вот это да! Я ничего не понял, извини...


Top
 Profile E-mail  
 
 
PostPosted: 10 Feb 2012 
Хиппей (support team)
User avatar
Joined: 30 Jul 2007
Posts: 108255
Lоcаtion: Киев (Kyiv, UA)
Age: 45
Name: Andrey
Серёг, данная тема http://www.thrashmageddon.com/forum/Dea ... -f198.html тебе видна, например?
Или эта: http://www.thrashmageddon.com/forum/Dea ... -f199.html


И вот эта: http://www.thrashmageddon.com/forum/ind ... 000&st=0&#

_________________


Top
 Profile E-mail  
 
 
PostPosted: 10 Feb 2012 
Труъ
Joined: 01 Jan 2010
Posts: 118
Lоcаtion: MetaLWarrioR
Name: Сергей
Ну и что там?! В [Dead Links]:
Scatterbrain (US) - Mozart Sonata #3 (1990)
Venom (UK) - The Second Coming (1996)
Venom (UK) - Scandinavian Assault 1986
В другом [Dead Links] тоже какая-то ахинея!
Для чего это всё?!


Top
 Profile E-mail  
 
 
PostPosted: 10 Feb 2012 
хард н хэвщик (support team)
User avatar
Joined: 02 Jun 2008
Posts: 16880
Lоcаtion: Н.Новгород
Age: 31
Name: Артем
Серег, пардон, вам сколько лет ?


Top
 Profile  
 
 
PostPosted: 10 Feb 2012 
Труъ
Joined: 01 Jan 2010
Posts: 118
Lоcаtion: MetaLWarrioR
Name: Сергей
Quote:
Серег, пардон, вам сколько лет ?

Началось... Причем здесь это?!
Я просто не настолько прошаренный в премудростях интернета!


Top
 Profile E-mail  
 
 
PostPosted: 10 Feb 2012 
хард н хэвщик (support team)
User avatar
Joined: 02 Jun 2008
Posts: 16880
Lоcаtion: Н.Новгород
Age: 31
Name: Артем
ну вот вам дали ссылки на прочтение - их же можно вставить в переводчик, например гугловский, и почитать. так?


Top
 Profile  
 
 
PostPosted: 10 Feb 2012 
Труъ
Joined: 01 Jan 2010
Posts: 118
Lоcаtion: MetaLWarrioR
Name: Сергей
Quote:
ну вот вам дали ссылки на прочтение - их же можно вставить в переводчик, например гугловский, и почитать. так?
Что за ахинея, какое прочтение, какой переводчик?!
В [Dead Links] представлены альбмы, которые мне и не нужны! А то, что мне интересно, не открывается, "хороший" сайт, шаг - по рублю!


Top
 Profile E-mail  
 
 
PostPosted: 10 Feb 2012 
***


Last edited by Вася_металлист_2012 on 14 Dec 2012, edited 1 time in total.

Top
  
 
 
PostPosted: 10 Feb 2012 
Труъ
User avatar
Joined: 18 Nov 2009
Posts: 126
Lоcаtion: Hellville
Age: 43
Name: Mapeк
Whatever is needed, it's dead anyways :benya:

Image

I will reup the lossless vinyl rips but its a monstrous amount of GB's...


Top
 Profile E-mail  
 
 
PostPosted: 11 Feb 2012 
Хиппей (support team)
User avatar
Joined: 30 Jul 2007
Posts: 108255
Lоcаtion: Киев (Kyiv, UA)
Age: 45
Name: Andrey
Marek, I still have it rip. I can uploads in our forum? :dance: :thanx:

Image

I was allowed to KGB :crazy: :true:

_________________


Top
 Profile E-mail  
 
 
PostPosted: 11 Feb 2012 
Хиппей (support team)
User avatar
Joined: 30 Jul 2007
Posts: 108255
Lоcаtion: Киев (Kyiv, UA)
Age: 45
Name: Andrey
MetaLWarrioR wrote:
Scatterbrain (US) - Mozart Sonata #3 (1990)

Ну... это ж точно не я :stop:

_________________


Top
 Profile E-mail  
 
 
PostPosted: 11 Feb 2012 
Труъ
User avatar
Joined: 18 Nov 2009
Posts: 126
Lоcаtion: Hellville
Age: 43
Name: Mapeк
Scatterbrain wrote:
Marek, I still have it rip. I can uploads in our forum? :dance: :thanx:

Image

I was allowed to KGB :crazy: :true:


I can't see the KGB /FSB permission :benya:

you can upload, put as password: kim dotcom in sodom :str:


Top
 Profile E-mail  
 
 
PostPosted: 12 Feb 2012 
Хиппей (support team)
User avatar
Joined: 30 Jul 2007
Posts: 108255
Lоcаtion: Киев (Kyiv, UA)
Age: 45
Name: Andrey
:thanx: :thanx: :thanx:

Lossless vinyl rip by Locutus

mirror: Speedy l Narod

pass: kill_the_bill

_________________


Top
 Profile E-mail  
 
 
PostPosted: 12 Feb 2012 
Труъ
Joined: 01 Jan 2010
Posts: 118
Lоcаtion: MetaLWarrioR
Name: Сергей
Scatterbrain & Locutus Большое спасибо!
Очень рад, что такие разные спецслужбы, все-таки нашли общий язык!


Top
 Profile E-mail  
 
 
PostPosted: 26 Feb 2012 
Я набрал 1000 сообщений!
User avatar
Joined: 25 Dec 2008
Posts: 1545
Age: 43
Name: Павел
К разговору на предыдущих страницах. Все же этот альбом издавался на Мавзолее на CD.
viewtopic.php?f=68&t=10463&start=0


Top
 Profile  
 
 
PostPosted: 25 Mar 2012 
Персональный статус
User avatar
Joined: 11 May 2011
Posts: 416
Lоcаtion: Omsk
Age: 28
Name: Alexander
Всем спасибо! :true:
Сравнил рипы: потрековый от Locutus звучит чище, тишина между песнями вычищена, но один канал громче другого, из-за чего кажется что центр смещён. В рипе образом от Mythra заметен песочек и тишина между песнями не почищена, обработок видимо не было (для меня так это в плюс).
P.S.
А вот кстати cue к нему
Code:
REM GENRE "Heavy Metal"
REM DATE 1984
REM DISCID 02092401
REM COMMENT "ExactAudioCopy v0.99pb5"
PERFORMER "Wolf"
TITLE "Edge Of The World"
FILE "Wolf (UK) - 1984 - Edge Of The World.flac" WAVE
  TRACK 01 AUDIO
    TITLE "Edge Of The World"
    PERFORMER "Wolf"
    FLAGS DCP
    INDEX 00 00:00:00
    INDEX 01 00:07:50
  TRACK 02 AUDIO
    TITLE "Highway Rider"
    PERFORMER "Wolf"
    FLAGS DCP
    INDEX 01 03:58:30
  TRACK 03 AUDIO
    TITLE "Heaven Will Rock 'n' Roll"
    PERFORMER "Wolf"
    FLAGS DCP
    INDEX 01 06:45:46
  TRACK 04 AUDIO
    TITLE "Shock Treatment"
    PERFORMER "Wolf"
    FLAGS DCP
    INDEX 01 10:18:45
  TRACK 05 AUDIO
    TITLE "A Soul For The Devil"
    PERFORMER "Wolf"
    FLAGS DCP
    INDEX 01 14:31:40
  TRACK 06 AUDIO
    TITLE "Head Contact (Rock 'n' Roll)"
    PERFORMER "Wolf"
    FLAGS DCP
    INDEX 01 20:26:30
  TRACK 07 AUDIO
    TITLE "Rest In Peace"
    PERFORMER "Wolf"
    FLAGS DCP
    INDEX 01 23:50:72
  TRACK 08 AUDIO
    TITLE "Too Close For Comfort"
    PERFORMER "Wolf"
    FLAGS DCP
    INDEX 01 28:05:00
  TRACK 09 AUDIO
    TITLE "Red Lights"
    PERFORMER "Wolf"
    FLAGS DCP
    INDEX 01 31:17:05
  TRACK 10 AUDIO
    TITLE "Medicine Man"
    PERFORMER "Wolf"
    FLAGS DCP
    INDEX 01 34:22:70

_________________
Enigma, unholy, ungodly, commander of the regeneration
Insidious and caught, implored by disgrace
Inhumation... The burial of man
Confession... Unify all evil


Top
 Profile E-mail  
 
 
PostPosted: 25 Mar 2012 
Хиппей (support team)
User avatar
Joined: 30 Jul 2007
Posts: 108255
Lоcаtion: Киев (Kyiv, UA)
Age: 45
Name: Andrey
http://speedy.sh/9nA4W/Wolf.rar

Quote:
Загрузка: Wolf.rar

not found

Файл не найден. Он был удален или вообще никогда не существовал.
Подсказка: Проверьте URL загрузки на наличие орфографических ошибок.


И тута ваще охренеле... :shok:

_________________


Top
 Profile E-mail  
 
Display posts from previous:  Sort by  
Post new topic Reply to topic  [ 97 posts ]  Go to page Previous  1, 2, 3, 4, 5  Next

All times are UTC + 3 hours


Who is online

Users browsing this forum: No registered users and 1 guest


You cannot post new topics in this forum
You cannot reply to topics in this forum
You cannot edit your posts in this forum
You cannot delete your posts in this forum
You cannot post attachments in this forum

Search for:
Яндекс.Метрика
Powered by phpBB © 2000, 2002, 2005, 2007 phpBB Group