\m/ 80's metal \m/

Информационно-аналитический форум "80 см пыли" (In Search We Trust) "У нас никто никуда не спешит"
Me For You - http://me-4u.com
It is currently 19 Nov 2018

All times are UTC + 3 hours

Spoiler
Chat - temporary registration for foreign users (please leave your application here)







Post new topic Reply to topic  [ 6 posts ] 
Author Message
 
PostPosted: 09 Mar 2011 
Генеральный thrasher
User avatar
Joined: 03 Oct 2008
Posts: 3506
Lоcаtion: Ханты-Мансийский АО
Age: 43
Name: Сергей
Image

Year:1992
Style:Thrash Metal
Country:Germany
Audio:Flac+Cue+Log+Scans
Size:439Mb
Source:my CD
Label:West Virginia Records/Steamhammer

Line-Up:
Dirk "Dicker" Weiss - Vocal
Maurer - Bass
Krid - Drums
Jannick - Guitar

Tracklist:
1. Resistance Useless 05:22
2. Die in Grief 06:26
3. Forest of Anima 01:34
4. Last Vacation 07:04
5. Wardance 06:38
6. Absolution 05:44
7. You are the Sickness 06:14
8. Tightrope Walk 02:30
9. The Ballad of H 06:04
10. Those Crawling Insects 05:27
11. Hypocrite 06:11
12. Black Metal (Venom cover) 03:21
13. Outro 01:06

Cue
REM GENRE "Thrash Metal"
REM DATE 1992
REM DISCID C80EEE0D
REM COMMENT "ExactAudioCopy v0.99pb5"
PERFORMER "Warpath"
TITLE "When War Begins"
FILE "Warpath - When War Begins.flac" WAVE
TRACK 01 AUDIO
TITLE "Resistance Useless"
PERFORMER "Warpath"
INDEX 01 00:00:00
TRACK 02 AUDIO
TITLE "Die In Grief"
PERFORMER "Warpath"
INDEX 01 05:22:23
TRACK 03 AUDIO
TITLE "Forest Of Anima"
PERFORMER "Warpath"
INDEX 01 11:49:08
TRACK 04 AUDIO
TITLE "Last Vacation"
PERFORMER "Warpath"
INDEX 01 13:23:58
TRACK 05 AUDIO
TITLE "Wardance"
PERFORMER "Warpath"
INDEX 01 20:27:43
TRACK 06 AUDIO
TITLE "Absolution"
PERFORMER "Warpath"
INDEX 01 27:05:60
TRACK 07 AUDIO
TITLE "You Are The Sickness"
PERFORMER "Warpath"
INDEX 01 32:49:68
TRACK 08 AUDIO
TITLE "Tightrope Walk"
PERFORMER "Warpath"
INDEX 01 39:03:25
TRACK 09 AUDIO
TITLE "The Ballad Of H"
PERFORMER "Warpath"
INDEX 01 41:33:25
TRACK 10 AUDIO
TITLE "Those Crawling Insects"
PERFORMER "Warpath"
INDEX 01 47:37:68
TRACK 11 AUDIO
TITLE "Hypocrite"
PERFORMER "Warpath"
INDEX 01 53:04:25
TRACK 12 AUDIO
TITLE "Black Metal"
PERFORMER "Warpath"
INDEX 01 59:15:70
TRACK 13 AUDIO
TITLE "Outro"
PERFORMER "Warpath"
INDEX 01 62:36:55


Log
Exact Audio Copy V0.99 prebeta 5 from 4. May 2009

Отчёт EAC об извлечении, выполненном 7. марта 2011, 12:17

Warpath / When War Begins

Дисковод: TSSTcorpCDDVDW SH-S202N Adapter: 0 ID: 1

Режим чтения : Достоверность
Использование точного потока : Да
Отключение кэша аудио : Да
Использование указателей C2 : Нет

Коррекция смещения при чтении : 6
Способность читать области Lead-in и Lead-out : Нет
Заполнение пропущенных сэмплов тишиной : Да
Удаление блоков с тишиной в начале и конце : Нет
При вычислениях CRC использовались нулевые сэмплы : Да
Интерфейс : Встроенный Win32-интерфейс для Win NT/2000

Выходной формат : Пользовательский кодировщик
Выбранный битрейт : 768 kBit/s
Качество : Высокий
Добавление ID3-тэга : Нет
Утилита сжатия : C:\Program Files\Exact Audio Copy\FLAC\FLAC.EXE
Дополнительные параметры : -6 -V -T "ARTIST=%a" -T "TITLE=%t" -T "ALBUM=%g" -T "DATE=%y" -T "TRACKNUMBER=%n" -T "GENRE=%m" -T "COMMENT=%e" %s -o %d


TOC извлечённого CD

Трек | Старт | Длительность | Начальный сектор | Конечный сектор
---------------------------------------------------------------------
1 | 0:00.00 | 5:22.23 | 0 | 24172
2 | 5:22.23 | 6:26.60 | 24173 | 53182
3 | 11:49.08 | 1:34.50 | 53183 | 60282
4 | 13:23.58 | 7:03.60 | 60283 | 92067
5 | 20:27.43 | 6:38.17 | 92068 | 121934
6 | 27:05.60 | 5:44.08 | 121935 | 147742
7 | 32:49.68 | 6:13.32 | 147743 | 175749
8 | 39:03.25 | 2:30.00 | 175750 | 186999
9 | 41:33.25 | 6:04.43 | 187000 | 214342
10 | 47:37.68 | 5:26.32 | 214343 | 238824
11 | 53:04.25 | 6:11.45 | 238825 | 266694
12 | 59:15.70 | 3:20.60 | 266695 | 281754
13 | 62:36.55 | 1:05.20 | 281755 | 286649


Характеристики диапазона извлечения и сообщения об ошибках

Выбранный диапазон

Имя файла D:\Lossless Music\Warpath - When War Begins.wav

Пиковый уровень 98.3 %
Качество диапазона 100.0 %
CRC копии 3E712EF2
Копирование... OK

Ошибок не произошло


AccurateRip: сводка

Трек 1 точное извлечение (доверие 3) [75238FD7]
Трек 2 точное извлечение (доверие 3) [ECD6283A]
Трек 3 точное извлечение (доверие 3) [D099E024]
Трек 4 точное извлечение (доверие 3) [C4B5C4CC]
Трек 5 точное извлечение (доверие 3) [70274ED2]
Трек 6 точное извлечение (доверие 3) [5565E19C]
Трек 7 точное извлечение (доверие 3) [57B634EF]
Трек 8 точное извлечение (доверие 3) [BAEFF856]
Трек 9 точное извлечение (доверие 3) [77AC9388]
Трек 10 точное извлечение (доверие 3) [1262F3E6]
Трек 11 точное извлечение (доверие 3) [CAF51A93]
Трек 12 точное извлечение (доверие 3) [4AE470A3]
Трек 13 точное извлечение (доверие 3) [FE641E59]

Все треки извлечены точно

Конец отчёта


When War Begins...


Top
 Profile  
 
 
PostPosted: 09 Mar 2011 
Хиппей (support team)
User avatar
Joined: 30 Jul 2007
Posts: 108153
Lоcаtion: Киев (Kyiv, UA)
Age: 45
Name: Andrey
:thanx:

mirror: http://www.multiupload.com/AXTMTBFS71

_________________


Top
 Profile E-mail  
 
 
PostPosted: 11 Aug 2011 
ТрэшЭрос
User avatar
Joined: 18 Jul 2011
Posts: 2300
Lоcаtion: Гулькевичи
Age: 43
Name: Александр
:thanx:

_________________
Thrash no trash!!!


Top
 Profile E-mail  
 
 
PostPosted: 30 Sep 2013 
Хиппей (support team)
User avatar
Joined: 30 Jul 2007
Posts: 108153
Lоcаtion: Киев (Kyiv, UA)
Age: 45
Name: Andrey
Ага, нашёл всё же, откуда я лосика скачивал :true:

mirror: Narod

Альбом уматовый, тащемта :meloman:
Для тех, кто обожает Carnivore и подобные группы, только с еще более юморной тематикой кроссоверного трэша, и вообще любителей угара и пивных дрожжей музыка окажется приятным аперитивчиком перед мясным блюдом :nyam:
Кавер на Вэном вышел опупенским :ura:

_________________


Top
 Profile E-mail  
 
 
PostPosted: 30 Sep 2013 
Генеральный thrasher
User avatar
Joined: 03 Oct 2008
Posts: 3506
Lоcаtion: Ханты-Мансийский АО
Age: 43
Name: Сергей
Раздаю этот альбом постоянно...на Рутрэкере


Top
 Profile  
 
 
PostPosted: 30 Sep 2013 
Хиппей (support team)
User avatar
Joined: 30 Jul 2007
Posts: 108153
Lоcаtion: Киев (Kyiv, UA)
Age: 45
Name: Andrey
Еще раз спасибо :thanx: :true:

_________________


Top
 Profile E-mail  
 
Display posts from previous:  Sort by  
Post new topic Reply to topic  [ 6 posts ] 

All times are UTC + 3 hours


Who is online

Users browsing this forum: No registered users and 4 guests


You cannot post new topics in this forum
You cannot reply to topics in this forum
You cannot edit your posts in this forum
You cannot delete your posts in this forum
You cannot post attachments in this forum

Search for:
Яндекс.Метрика
Powered by phpBB © 2000, 2002, 2005, 2007 phpBB Group