\m/ 80's metal \m/

Информационно-аналитический форум "80 см пыли" (In Search We Trust) "У нас никто никуда не спешит"
Me For You - http://me-4u.com
It is currently 19 Nov 2018

All times are UTC + 3 hours

Spoiler
Chat - temporary registration for foreign users (please leave your application here)







Post new topic Reply to topic  [ 14 posts ] 
Author Message
 
PostPosted: 24 Feb 2011 
Работнечег
User avatar
Joined: 28 Aug 2007
Posts: 5533
Lоcаtion: г. Москва
Age: 29
Name: Дима
Image
Band: Wildfire
Album: Brute Force And Ignorance
Year: 1983 (Reissued In 2002)
Label: Mausoleum Records
Genre: NWOBHM
Coutry: UK
Format: Flac + Log + Cue + Covers
Size: 315 Mb

Line-Up:
Paul Mario Day - Vocals (Iron Maiden, More, Sweet, Crimson Lake, The Gringos)
Jeff Summers - Guitars (Weapon (Gbr), The Headbangers, Flex, Legs Akimbo, The Loudshirts, Paddy Goes To Holyhead, Snatch, Statetrooper)
Martin Bushell - Guitars (Statetrooper)
Jeff Brown - Bass (Statetrooper, Dumpy's Rusty Nuts)
Bruce Bisland - Drums (Praying Mantis, Statetrooper, Sweet, Tank (Gbr), The Wandering Crutchless, Weapon (Gbr), Lipservice)


Tracklist:
1. Violator 03:49
2. Victim Of Love 03:51
3. Another Daymare 03:40
4. Lovelight 04:30
5. Search And Destroy 04:26
6. Redline 04:17
7. Wildfire 02:35
8. Goldrush 04:44
9. If I Tried 03:45
10. Eyes Of The Future 04:35
Total playing time 40:12

LOG
Exact Audio Copy V0.99 prebeta 5 from 4. May 2009

EAC extraction logfile from 24. February 2011, 13:36

Wildfire / Brute Force And Ignorance

Used drive : PIONEER DVD-RW DVR-116D Adapter: 0 ID: 0

Read mode : Secure
Utilize accurate stream : Yes
Defeat audio cache : Yes
Make use of C2 pointers : No

Read offset correction : 96
Overread into Lead-In and Lead-Out : No
Fill up missing offset samples with silence : Yes
Delete leading and trailing silent blocks : No
Null samples used in CRC calculations : Yes
Used interface : Native Win32 interface for Win NT & 2000

Used output format : User Defined Encoder
Selected bitrate : 32 kBit/s
Quality : High
Add ID3 tag : No
Command line compressor : C:\Program Files\Exact Audio Copy\Flac\flac.exe
Additional command line options : -6 -V %s


TOC of the extracted CD

Track | Start | Length | Start sector | End sector
---------------------------------------------------------
1 | 0:00.00 | 3:51.19 | 0 | 17343
2 | 3:51.19 | 3:53.30 | 17344 | 34848
3 | 7:44.49 | 3:42.57 | 34849 | 51555
4 | 11:27.31 | 4:32.46 | 51556 | 72001
5 | 16:00.02 | 4:28.23 | 72002 | 92124
6 | 20:28.25 | 4:17.49 | 92125 | 111448
7 | 24:45.74 | 2:35.41 | 111449 | 123114
8 | 27:21.40 | 4:46.16 | 123115 | 144580
9 | 32:07.56 | 4:27.27 | 144581 | 164632
10 | 36:35.08 | 4:35.71 | 164633 | 185328


Range status and errors

Selected range

Filename D:\Музыка\Lossless\Wildfire - Brute Force And Ignorance (1983)\Wildfire - Brute Force And Ignorance.wav

Peak level 98.5 %
Range quality 100.0 %
Copy CRC BCFE81AD
Copy OK

No errors occurred


AccurateRip summary

Track 1 accurately ripped (confidence 2) [0DB967E3]
Track 2 accurately ripped (confidence 2) [F0E53B47]
Track 3 accurately ripped (confidence 2) [99707E96]
Track 4 accurately ripped (confidence 2) [84FE3932]
Track 5 accurately ripped (confidence 2) [7F5C648F]
Track 6 accurately ripped (confidence 2) [9F4DDFF7]
Track 7 accurately ripped (confidence 2) [1EB79F81]
Track 8 accurately ripped (confidence 2) [B64ECCF0]
Track 9 accurately ripped (confidence 2) [364C7E57]
Track 10 accurately ripped (confidence 2) [943290E2]

All tracks accurately ripped

End of status report

CUE
Exact Audio Copy V0.99 prebeta 5 from 4. May 2009

EAC extraction logfile from 24. February 2011, 13:36

Wildfire / Brute Force And Ignorance

Used drive : PIONEER DVD-RW DVR-116D Adapter: 0 ID: 0

Read mode : Secure
Utilize accurate stream : Yes
Defeat audio cache : Yes
Make use of C2 pointers : No

Read offset correction : 96
Overread into Lead-In and Lead-Out : No
Fill up missing offset samples with silence : Yes
Delete leading and trailing silent blocks : No
Null samples used in CRC calculations : Yes
Used interface : Native Win32 interface for Win NT & 2000

Used output format : User Defined Encoder
Selected bitrate : 32 kBit/s
Quality : High
Add ID3 tag : No
Command line compressor : C:\Program Files\Exact Audio Copy\Flac\flac.exe
Additional command line options : -6 -V %s


TOC of the extracted CD

Track | Start | Length | Start sector | End sector
---------------------------------------------------------
1 | 0:00.00 | 3:51.19 | 0 | 17343
2 | 3:51.19 | 3:53.30 | 17344 | 34848
3 | 7:44.49 | 3:42.57 | 34849 | 51555
4 | 11:27.31 | 4:32.46 | 51556 | 72001
5 | 16:00.02 | 4:28.23 | 72002 | 92124
6 | 20:28.25 | 4:17.49 | 92125 | 111448
7 | 24:45.74 | 2:35.41 | 111449 | 123114
8 | 27:21.40 | 4:46.16 | 123115 | 144580
9 | 32:07.56 | 4:27.27 | 144581 | 164632
10 | 36:35.08 | 4:35.71 | 164633 | 185328


Range status and errors

Selected range

Filename D:\Музыка\Lossless\Wildfire - Brute Force And Ignorance (1983)\Wildfire - Brute Force And Ignorance.wav

Peak level 98.5 %
Range quality 100.0 %
Copy CRC BCFE81AD
Copy OK

No errors occurred


AccurateRip summary

Track 1 accurately ripped (confidence 2) [0DB967E3]
Track 2 accurately ripped (confidence 2) [F0E53B47]
Track 3 accurately ripped (confidence 2) [99707E96]
Track 4 accurately ripped (confidence 2) [84FE3932]
Track 5 accurately ripped (confidence 2) [7F5C648F]
Track 6 accurately ripped (confidence 2) [9F4DDFF7]
Track 7 accurately ripped (confidence 2) [1EB79F81]
Track 8 accurately ripped (confidence 2) [B64ECCF0]
Track 9 accurately ripped (confidence 2) [364C7E57]
Track 10 accurately ripped (confidence 2) [943290E2]

All tracks accurately ripped

End of status report

Spectrum
Image


Narod.Ru


Top
 Profile E-mail  
 
 
PostPosted: 27 Feb 2011 
Хиппей (support team)
User avatar
Joined: 30 Jul 2007
Posts: 108187
Lоcаtion: Киев (Kyiv, UA)
Age: 45
Name: Andrey
Эх, раритет был когда-то :true:

Димка, спасибо! :thanx:

_________________


Top
 Profile E-mail  
 
 
PostPosted: 27 Feb 2011 
А может смените мне статус?..
User avatar
Joined: 24 Dec 2008
Posts: 621
Age: 44
Name: Дмитрий
Спасибо, не слышал.


Top
 Profile  
 
 
PostPosted: 18 Mar 2011 
Пионэръ
User avatar
Joined: 08 Nov 2010
Posts: 43
Lоcаtion: Россия
Name: Юрий
church
Тоже забираю, спасибо!


Top
 Profile E-mail  
 
 
PostPosted: 18 Mar 2011 
Пионэръ
Joined: 27 Aug 2010
Posts: 10
Lоcаtion: England
Name: Ken
спасибо!


Top
 Profile E-mail  
 
 
PostPosted: 19 Mar 2011 
Пионэръ
User avatar
Joined: 08 Nov 2010
Posts: 43
Lоcаtion: Россия
Name: Юрий
Дима,большое спасибо за твои релизы,редкие и качественые,мне 57лет,я впервые слушаю такие группы,ОГРОМНОЕ СПАСИБО!


Top
 Profile E-mail  
 
 
PostPosted: 27 Mar 2011 
Работнечег
User avatar
Joined: 28 Aug 2007
Posts: 5533
Lоcаtion: г. Москва
Age: 29
Name: Дима
KIN wrote:
Дима,большое спасибо за твои релизы,редкие и качественые,мне 57лет,я впервые слушаю такие группы,ОГРОМНОЕ СПАСИБО!

Пасибо, приятно слышать! :true:


Top
 Profile E-mail  
 
 
PostPosted: 28 Mar 2011 
Хиппей (support team)
User avatar
Joined: 30 Jul 2007
Posts: 108187
Lоcаtion: Киев (Kyiv, UA)
Age: 45
Name: Andrey
mirror: http://multiupload.com/HJSMIVIRU6

_________________


Top
 Profile E-mail  
 
 
PostPosted: 06 Oct 2012 
Я набрал 1000 сообщений!
Joined: 24 Oct 2009
Posts: 2098
Lоcаtion: Оренбург
Age: 55
Name: Юра
Спасибо! :true:

_________________
:dash: I am happy!


Top
 Profile E-mail  
 
 
PostPosted: 29 Oct 2013 
\m/ 80 см сала \m/
User avatar
Joined: 12 Mar 2012
Posts: 2589
Age: 25
Name: Nick
Image

Wildfire (UK) - 1983 - Brute Force And Ignorance [1994 reissue]
Mausoleum Classix, #704110.2

Narod by SHI (MMT)

_________________
1990 AUROPHON BRAINSTORM (Germany) - lossless
1994 MAUSOLEUM CLASSIX (Belgium-Germany) - lossless
1998 VA - GRIM HARVEST - Complete Metal Massacre Volumes I-XII


Top
 Profile  
 
 
PostPosted: 04 Nov 2013 
Почётный металлург
User avatar
Joined: 15 Sep 2007
Posts: 4357
Lоcаtion: Хабаровск
Age: 58
Name: чуть выше
:thanx: :thanx: :thanx:

_________________
Коль будешь людей ты ослами честить,
тебе человеком меж них не прослыть!
(Саади, персидский поэт, 13в.)


Top
 Profile  
 
 
PostPosted: 04 Nov 2013 
Хиппей (support team)
User avatar
Joined: 30 Jul 2007
Posts: 108187
Lоcаtion: Киев (Kyiv, UA)
Age: 45
Name: Andrey
:thanx:

mirror: (reissue 1994) Narod l M-Cloud

А тут точно на переиздании от 2002 года был паршивый звук?

_________________


Top
 Profile E-mail  
 
 
PostPosted: 04 Nov 2013 
Работнечег
User avatar
Joined: 28 Aug 2007
Posts: 5533
Lоcаtion: г. Москва
Age: 29
Name: Дима
нормальный звук по-моему был :vic:


Top
 Profile E-mail  
 
 
PostPosted: 04 Nov 2013 
Хиппей (support team)
User avatar
Joined: 30 Jul 2007
Posts: 108187
Lоcаtion: Киев (Kyiv, UA)
Age: 45
Name: Andrey
Ну, благо ссылка жива и можно сравнить :dance:

_________________


Top
 Profile E-mail  
 
Display posts from previous:  Sort by  
Post new topic Reply to topic  [ 14 posts ] 

All times are UTC + 3 hours


Who is online

Users browsing this forum: No registered users and 2 guests


You cannot post new topics in this forum
You cannot reply to topics in this forum
You cannot edit your posts in this forum
You cannot delete your posts in this forum
You cannot post attachments in this forum

Search for:
Яндекс.Метрика
Powered by phpBB © 2000, 2002, 2005, 2007 phpBB Group