\m/ 80's metal \m/

Информационно-аналитический форум "80 см пыли" (In Search We Trust) "У нас никто никуда не спешит"
Me For You - http://me-4u.com
It is currently 18 Nov 2018

All times are UTC + 3 hours

Spoiler
Chat - temporary registration for foreign users (please leave your application here)







Post new topic Reply to topic  [ 7 posts ] 
Author Message
 
PostPosted: 08 Nov 2010 
ыыыы
User avatar
Joined: 17 May 2009
Posts: 952
Lоcаtion: Пушкино, МО
Age: 40
Name: Дмитрий
Image


Жанр: Hard Rock
Происхождение исполнителя: Англия
Год издания: 1980
Год издания данного носителя: 1993
Страна-производитель носителя: Япония
Аудио кодек: FLAC
Тип рипа: image+.cue
Битрейт аудио: lossless
Продолжительность: 37:08
Рип: Собственный
Лейбл: EMI
Каталоговый номер: TOCP-7975
Матрица: TOCP-7975 2A1 TO (TOSHIBA)

Треклист:
1. Reservation 03:49
2. Face Down 03:31
3. Blackmail 02:29
4. Flyaway 03:36
5. Dealer 05:00
6. Street Girl 03:30
7. No Strings Attached 03:58
8. Criminal Tendencies 03:50
9. Nights On The Town 03:23
10. Woman 04:03

"Куй"
REM GENRE "Hard Rock"
REM DATE 1980
REM DISCID 7908B30A
REM COMMENT "ExactAudioCopy v0.99pb5"
PERFORMER "Wild Horses"
TITLE "The First Album [TOCP-7975]"
FILE "Wild Horses - The First Album [TOCP-7975].flac" WAVE
TRACK 01 AUDIO
TITLE "Reservation"
PERFORMER "Wild Horses"
INDEX 01 00:00:00
TRACK 02 AUDIO
TITLE "Face Down"
PERFORMER "Wild Horses"
INDEX 00 03:47:22
INDEX 01 03:48:42
TRACK 03 AUDIO
TITLE "Blackmail"
PERFORMER "Wild Horses"
INDEX 00 07:18:67
INDEX 01 07:19:25
TRACK 04 AUDIO
TITLE "Flyaway"
PERFORMER "Wild Horses"
INDEX 00 09:45:30
INDEX 01 09:48:10
TRACK 05 AUDIO
TITLE "Dealer"
PERFORMER "Wild Horses"
INDEX 00 13:21:52
INDEX 01 13:23:50
TRACK 06 AUDIO
TITLE "Street Girl"
PERFORMER "Wild Horses"
INDEX 00 18:21:15
INDEX 01 18:23:50
TRACK 07 AUDIO
TITLE "No Strings Attached"
PERFORMER "Wild Horses"
INDEX 00 21:52:02
INDEX 01 21:54:00
TRACK 08 AUDIO
TITLE "Criminal Tendencies"
PERFORMER "Wild Horses"
INDEX 00 25:50:72
INDEX 01 25:52:17
TRACK 09 AUDIO
TITLE "Nights On The Town"
PERFORMER "Wild Horses"
INDEX 00 29:39:20
INDEX 01 29:42:05
TRACK 10 AUDIO
TITLE "Woman"
PERFORMER "Wild Horses"
INDEX 00 33:04:20
INDEX 01 33:05:12


"Лог"
Exact Audio Copy V0.99 prebeta 5 from 4. May 2009

Отчёт EAC об извлечении, выполненном 2. ноября 2010, 14:04

Wild Horses / The First Album [TOCP-7975]

Дисковод: Optiarc DVD RW AD-7200A Adapter: 1 ID: 0

Режим чтения : Достоверность
Использование точного потока : Да
Отключение кэша аудио : Да
Использование указателей C2 : Нет

Коррекция смещения при чтении : 48
Способность читать области Lead-in и Lead-out : Нет
Заполнение пропущенных сэмплов тишиной : Да
Удаление блоков с тишиной в начале и конце : Нет
При вычислениях CRC использовались нулевые сэмплы : Да
Интерфейс : Встроенный Win32-интерфейс для Win NT/2000

Выходной формат : Пользовательский кодировщик
Выбранный битрейт : 128 kBit/s
Качество : Высокий
Добавление ID3-тэга : Нет
Утилита сжатия : C:\Program Files\Exact Audio Copy\Flac\flac.exe
Дополнительные параметры : -8 -V -T "artist=%a" -T "title=%t" -T "album=%g" -T "date=%y" -T "tracknumber=%n" -T "genre=%m" -T "comment=EAC


TOC извлечённого CD

Трек | Старт | Длительность | Начальный сектор | Конечный сектор
---------------------------------------------------------------------
1 | 0:00.00 | 3:48.42 | 0 | 17141
2 | 3:48.42 | 3:30.58 | 17142 | 32949
3 | 7:19.25 | 2:28.60 | 32950 | 44109
4 | 9:48.10 | 3:35.40 | 44110 | 60274
5 | 13:23.50 | 5:00.00 | 60275 | 82774
6 | 18:23.50 | 3:30.25 | 82775 | 98549
7 | 21:54.00 | 3:58.17 | 98550 | 116416
8 | 25:52.17 | 3:49.63 | 116417 | 133654
9 | 29:42.05 | 3:23.07 | 133655 | 148886
10 | 33:05.12 | 4:02.40 | 148887 | 167076


Характеристики диапазона извлечения и сообщения об ошибках

Выбранный диапазон

Имя файла Y:\Музыка\Wild Horses\1980 The First Album\Wild Horses - The First Album [TOCP-7975].wav

Пиковый уровень 100.0 %
Качество диапазона 100.0 %
CRC теста FDA954F3
CRC копии FDA954F3
Копирование... OK

Ошибок не произошло


AccurateRip: сводка

Трек 1 точное извлечение (доверие 1) [C94B1A54]
Трек 2 точное извлечение (доверие 1) [634AB233]
Трек 3 точное извлечение (доверие 1) [52D4F062]
Трек 4 точное извлечение (доверие 1) [553FCE7B]
Трек 5 точное извлечение (доверие 1) [4E774E2F]
Трек 6 точное извлечение (доверие 1) [48094FF4]
Трек 7 точное извлечение (доверие 1) [126634A4]
Трек 8 точное извлечение (доверие 1) [F2138D8E]
Трек 9 точное извлечение (доверие 1) [57EA8D49]
Трек 10 точное извлечение (доверие 1) [E8E8DFAD]

Все треки извлечены точно

Конец отчёта


Состав:
Jimmy Bain: Vocals, bass, guitars, keyboards
Brian Robertson: Guitars, bass (on 'Flyaway' and 'Nights On The Town'), vocals (on 'Blackmail' and 'Nights On The Town')
Neil Carter: Guitars, keyboards
Clive Edwards: Drums

TOCP-7975

_________________
Витасу до Даймонда как Алсу до Руссоса | При переразмещении - спрашивать разрешение!!


Top
 Profile  
 
 
PostPosted: 08 Nov 2010 
Персональный статус
Joined: 14 May 2010
Posts: 236
Age: 37
Name: Денис
ээ.. этот ТОТ самый Джимми Бэйн, который в Rainbow/Dio играл?


Top
 Profile  
 
 
PostPosted: 08 Nov 2010 
ыыыы
User avatar
Joined: 17 May 2009
Posts: 952
Lоcаtion: Пушкино, МО
Age: 40
Name: Дмитрий
ага

_________________
Витасу до Даймонда как Алсу до Руссоса | При переразмещении - спрашивать разрешение!!


Top
 Profile  
 
 
PostPosted: 08 Nov 2010 
Персональный статус
Joined: 14 May 2010
Posts: 236
Age: 37
Name: Денис
Решил в своём ансамбле поиграть. :band: Не знал, интересно будет послушать. Это он наверное в перерыве между Rainbow и Dio выживал.


Top
 Profile  
 
 
PostPosted: 08 Nov 2010 
Old Time Rock`n`Roll
User avatar
Joined: 23 Jun 2008
Posts: 3363
Lоcаtion: г.Ульяновск
Age: 40
Name: Константин
Спасибо. Помню в Классик роке о них писали как о потенциально очень сильной группе, но то ли за воротник крепко закладывали, то ли характер совсем вздорный был у Бэйна и Робертсона, развалились в итоге.


Top
 Profile  
 
 
PostPosted: 09 Nov 2010 
Хиппей (support team)
User avatar
Joined: 30 Jul 2007
Posts: 108107
Lоcаtion: Киев (Kyiv, UA)
Age: 45
Name: Andrey
:thanx:

Если не путаю, успели они дать пару концертов с Пристами :umnik:

_________________


Top
 Profile E-mail  
 
 
PostPosted: 09 Nov 2010 
дядя Миша
User avatar
Joined: 17 Oct 2008
Posts: 3072
Lоcаtion: USSR
Age: 56
Name: Khy
Спасибо! На Thin Lizzy похожи чем то...


Top
 Profile  
 
Display posts from previous:  Sort by  
Post new topic Reply to topic  [ 7 posts ] 

All times are UTC + 3 hours


Who is online

Users browsing this forum: No registered users and 1 guest


You cannot post new topics in this forum
You cannot reply to topics in this forum
You cannot edit your posts in this forum
You cannot delete your posts in this forum
You cannot post attachments in this forum

Search for:
Яндекс.Метрика
Powered by phpBB © 2000, 2002, 2005, 2007 phpBB Group