\m/ 80's metal \m/

Информационно-аналитический форум "80 см пыли" (In Search We Trust) "У нас никто никуда не спешит"
Me For You - http://me-4u.com
It is currently 21 Nov 2018

All times are UTC + 3 hours

Spoiler
Chat - temporary registration for foreign users (please leave your application here)







Post new topic Reply to topic  [ 12 posts ] 
Author Message
 
PostPosted: 03 Nov 2010 
ыыыы
User avatar
Joined: 17 May 2009
Posts: 952
Lоcаtion: Пушкино, МО
Age: 40
Name: Дмитрий
Image


Жанр: Hard Rock
Происхождение исполнителя: Англия/США
Год издания: 1989
Год издания данного носителя: 1989
Страна-производитель носителя: Япония
Аудио кодек: FLAC
Тип рипа: image+.cue
Битрейт аудио: lossless
Продолжительность: 47:00
Рип: Собственный
Лейбл: GEFFEN/CBS-SONY
Каталоговый номер: CSCS-5001
Матрица: DPA-1004 1 (SONY)

Треклист:
1. Slip of the Tongue 05:21
2. Cheap an' Nasty 03:29
3. Fool for Your Loving 04:12
4. Now You're Gone 04:12
5. Kittens Got Claws 05:02
6. Wings of the Storm 05:02
7. The Deeper the Love 04:23
8. Judgement Day 05:17
9. Slow Poke Music 03:59
10. Sailing Ships 06:04

"Куй"
REM GENRE "Hard Rock"
REM DATE 1989
REM DISCID 7A0B040A
REM COMMENT "ExactAudioCopy v0.99pb5"
PERFORMER "Whitesnake"
TITLE "Slip Of The Tongue [CSCS-5001]"
FILE "Whitesnake - Slip Of The Tongue [CSCS-5001].flac" WAVE
TRACK 01 AUDIO
TITLE "Slip Of The Tongue"
PERFORMER "Whitesnake"
INDEX 01 00:00:00
TRACK 02 AUDIO
TITLE "Cheap An' Nasty"
PERFORMER "Whitesnake"
INDEX 01 05:20:45
TRACK 03 AUDIO
TITLE "Fool For Your Lovin'"
PERFORMER "Whitesnake"
INDEX 01 08:49:50
TRACK 04 AUDIO
TITLE "Now You're Gone"
PERFORMER "Whitesnake"
INDEX 01 13:01:22
TRACK 05 AUDIO
TITLE "Kittens Got Claws"
PERFORMER "Whitesnake"
INDEX 01 17:13:47
TRACK 06 AUDIO
TITLE "Wings Of The Storm"
PERFORMER "Whitesnake"
INDEX 01 22:15:60
TRACK 07 AUDIO
TITLE "The Deeper The Love"
PERFORMER "Whitesnake"
INDEX 01 27:17:40
TRACK 08 AUDIO
TITLE "Judgment Day"
PERFORMER "Whitesnake"
INDEX 01 31:40:25
TRACK 09 AUDIO
TITLE "Slow Poke Music"
PERFORMER "Whitesnake"
INDEX 01 36:56:70
TRACK 10 AUDIO
TITLE "Sailing Ships"
PERFORMER "Whitesnake"
INDEX 01 40:56:25


"Лог"
Exact Audio Copy V0.99 prebeta 5 from 4. May 2009

Отчёт EAC об извлечении, выполненном 21. января 2010, 1:25

Whitesnake / Slip Of The Tongue [CSCS-5001]

Дисковод: ASUS DRW-2014S1 Adapter: 1 ID: 0

Режим чтения : Достоверность
Использование точного потока : Да
Отключение кэша аудио : Да
Использование указателей C2 : Нет

Коррекция смещения при чтении : 6
Способность читать области Lead-in и Lead-out : Нет
Заполнение пропущенных сэмплов тишиной : Да
Удаление блоков с тишиной в начале и конце : Нет
При вычислениях CRC использовались нулевые сэмплы : Нет
Интерфейс : Установленный внешний ASPI-интерфейс

Выходной формат : Внутренние WAV-операции
Формат сэмплов : 44.100 Гц; 16 бит; стерео


TOC извлечённого CD

Трек | Старт | Длительность | Начальный сектор | Конечный сектор
---------------------------------------------------------------------
1 | 0:00.00 | 5:20.45 | 0 | 24044
2 | 5:20.45 | 3:29.05 | 24045 | 39724
3 | 8:49.50 | 4:11.47 | 39725 | 58596
4 | 13:01.22 | 4:12.25 | 58597 | 77521
5 | 17:13.47 | 5:02.13 | 77522 | 100184
6 | 22:15.60 | 5:01.55 | 100185 | 122814
7 | 27:17.40 | 4:22.60 | 122815 | 142524
8 | 31:40.25 | 5:16.45 | 142525 | 166269
9 | 36:56.70 | 3:59.30 | 166270 | 184224
10 | 40:56.25 | 6:03.50 | 184225 | 211499


Характеристики диапазона извлечения и сообщения об ошибках

Выбранный диапазон

Имя файла Y:\Музыка\Whitesnake\1989 Sleep Of The Tongue\Whitesnake - Slip Of The Tongue [CSCS-5001].wav

Пиковый уровень 96.5 %
Качество диапазона 100.0 %
CRC копии C809BADC
Копирование... OK

Ошибок не произошло


AccurateRip: сводка

Трек 1 точное извлечение (доверие 1) [4E82D0C0]
Трек 2 точное извлечение (доверие 1) [F7C79F94]
Трек 3 точное извлечение (доверие 1) [54D8BE99]
Трек 4 точное извлечение (доверие 1) [83AECFAB]
Трек 5 точное извлечение (доверие 1) [7F94CA1E]
Трек 6 точное извлечение (доверие 1) [3C017BC3]
Трек 7 точное извлечение (доверие 1) [FDA8A7B3]
Трек 8 точное извлечение (доверие 1) [BE95E062]
Трек 9 точное извлечение (доверие 1) [EDFACF5D]
Трек 10 точное извлечение (доверие 1) [D022E243]

Все треки извлечены точно

Конец отчёта


Состав:
David Coverdale: Vocals
Steve Vai: Guitars
Adrian Vandenberg: Guitars (credited, but does not appear on album)
Rudy Sarzo: Bass
Tommy Aldridge: Drums

CSCS-5001

_________________
Витасу до Даймонда как Алсу до Руссоса | При переразмещении - спрашивать разрешение!!


Top
 Profile  
 
 
PostPosted: 03 Nov 2010 
Хиппей (support team)
User avatar
Joined: 30 Jul 2007
Posts: 108257
Lоcаtion: Киев (Kyiv, UA)
Age: 45
Name: Andrey
Красота! До сих пор обожаю здесь кошачьи визги Давида :true:

_________________


Top
 Profile E-mail  
 
 
PostPosted: 03 Nov 2010 
Alive Again
User avatar
Joined: 17 Dec 2008
Posts: 4744
Lоcаtion: Курск Воронеж Оскол
Age: 44
Name: Дмитрий
Спасибо, единственный, который нравится, зато нравится очень!


Top
 Profile E-mail  
 
 
PostPosted: 03 Nov 2010 
Gretzky must die
User avatar
Joined: 16 Sep 2010
Posts: 263
Lоcаtion: Московская обл.
Name: Андрей
Благодарен за "японца" !! :thanx: :true:


Top
 Profile  
 
 
PostPosted: 03 Nov 2010 
А может смените мне статус?..
User avatar
Joined: 24 Dec 2008
Posts: 621
Age: 44
Name: Дмитрий
Спасибо, обновлю.
Мне, почему-то, больше нравится альбом 1987 года... :umnik: :fingal: :vic:


Top
 Profile  
 
 
PostPosted: 03 Nov 2010 
Персональный статус
Joined: 14 May 2010
Posts: 236
Age: 37
Name: Денис
Кстати, тоже подметил, что мне 89 нравится больше чем 87. Такие дела.

iezuit
Уже не знаю какие разновидности "спасибо" придумать. Вот Андрей Саныч неплохо придумал.. просто кланяться смайликом :thanx: . Видимо поэтому, он стоит первым в списке. :crazy:


Top
 Profile  
 
 
PostPosted: 03 Nov 2010 
Позитивный Южанин
User avatar
Joined: 07 May 2010
Posts: 1620
Lоcаtion: КРЫМ
Age: 43
Name: Алексей
Болгары БАЛКАТОН (ЛП) его с другой конвертой выпускали :shok:

_________________
WATER'EM ALL!


Top
 Profile E-mail  
 
 
PostPosted: 03 Nov 2010 
Old Time Rock`n`Roll
User avatar
Joined: 23 Jun 2008
Posts: 3363
Lоcаtion: г.Ульяновск
Age: 40
Name: Константин
Спасибо, нравится почти весь Уайтснейк, а видеоклипы с Тони Китэйн хэйр-металлическая легкая эротика :true:


Top
 Profile  
 
 
PostPosted: 04 Nov 2010 
Хиппей (support team)
User avatar
Joined: 30 Jul 2007
Posts: 108257
Lоcаtion: Киев (Kyiv, UA)
Age: 45
Name: Andrey
disabled wrote:
Кстати, тоже подметил, что мне 89 нравится больше чем 87. Такие дела.

Ну он более хитовый. Давидка над ним работал больше и тщательнее. Но всё равно, для меня эталоном остается 87-й.
disabled wrote:
Уже не знаю какие разновидности "спасибо" придумать. Вот Андрей Саныч неплохо придумал.. просто кланяться смайликом

Это только за Димкины лоси. Это пометка, что я их на виртуальный винт сбросил. Остальные же просто пока не качаю, а ссылки бэкаплю :pardon:

Когда уже конкретно всё скачаю и начну слушать, тогда буду отписываться пожирнее :oops:

_________________


Top
 Profile E-mail  
 
 
PostPosted: 04 Nov 2010 
Персональный статус
Joined: 14 May 2010
Posts: 236
Age: 37
Name: Денис
Scatterbrain wrote:
Когда уже конкретно всё скачаю и начну слушать, тогда буду отписываться пожирнее :oops:

Ээ.. много качать-то. Боюсь, что так это и останется, в пометках. :nunu:


Top
 Profile  
 
 
PostPosted: 07 Nov 2010 
Зарегился вот...
Joined: 07 Nov 2010
Posts: 4
Lоcаtion: Санкт-Петербург
Name: Макс
Даже стыдно признаться: слышал у Ковердэйла практически всё, за исключением этой работы. Как-то мимо меня она проскочила в своё время. Очень здорово, что исправлять оплошность буду японским прессом. Огромное спасибо!


Top
 Profile E-mail  
 
 
PostPosted: 07 Nov 2010 
Труъ
User avatar
Joined: 14 Jul 2010
Posts: 104
Lоcаtion: Украина, Донецк
Age: 33
Name: Санёк
Спасибо Дима, пластинка очень достойная выдалась. Материал интересный и разноплановый, да и состав подобрался звездный. Один из тех альбомов, которые не надоедают. Хотя Serpens Albus мне, признаться, больше по душе.

_________________
Rock 'N' Roll is the only thing that keeps me from breaking apart (c)


Top
 Profile E-mail  
 
Display posts from previous:  Sort by  
Post new topic Reply to topic  [ 12 posts ] 

All times are UTC + 3 hours


Who is online

Users browsing this forum: No registered users and 2 guests


You cannot post new topics in this forum
You cannot reply to topics in this forum
You cannot edit your posts in this forum
You cannot delete your posts in this forum
You cannot post attachments in this forum

Search for:
Яндекс.Метрика
Powered by phpBB © 2000, 2002, 2005, 2007 phpBB Group