\m/ 80's metal \m/

Информационно-аналитический форум "80 см пыли" (In Search We Trust) "У нас никто никуда не спешит"
Me For You - http://me-4u.com
It is currently 19 Nov 2018

All times are UTC + 3 hours

Spoiler
Chat - temporary registration for foreign users (please leave your application here)







Post new topic Reply to topic  [ 4 posts ] 
Author Message
 
PostPosted: 31 Oct 2010 
ыыыы
User avatar
Joined: 17 May 2009
Posts: 952
Lоcаtion: Пушкино, МО
Age: 40
Name: Дмитрий
Image


Жанр: Hard Rock
Происхождение исполнителя: Англия/США
Год издания: 1979
Год издания данного носителя: 1987
Страна-производитель носителя: Япония
Аудио кодек: FLAC
Тип рипа: image+.cue
Битрейт аудио: lossless
Продолжительность: 41:42
Рип: Собственный
Лейбл: SUNBURST/POLYDOR K.K.
Каталоговый номер: P33P-25057
Матрица: P33P-25057 MT 2A1 ++ (DENON)

Треклист:
1. Long Way from Home 04:59
2. Walking in the Shadow of the Blues 04:27
3. Help Me Thro' the Day 04:42
4. Medicine Man 04:04
5. You 'n' Me 03:32
6. Mean Business 03:49
7. Love Hunter 05:39
8. Outlaw 04:05
9. Rock 'N' Roll Women 04:47
10. We Wish You Well 01:37

"Куй"
REM GENRE "Hard Rock"
REM DATE 1979
REM DISCID 7609C50A
REM COMMENT "ExactAudioCopy v0.99pb5"
PERFORMER "Whitesnake"
TITLE "Lovehunter [P33P-25057]"
FILE "Whitesnake - Lovehunter [P33P-25057].flac" WAVE
TRACK 01 AUDIO
TITLE "Long Way From Home"
PERFORMER "Whitesnake"
INDEX 01 00:00:00
TRACK 02 AUDIO
TITLE "Walking in the Shadow of the Blues"
PERFORMER "Whitesnake"
INDEX 00 04:57:70
INDEX 01 04:58:62
TRACK 03 AUDIO
TITLE "Help Me Thro the Day"
PERFORMER "Whitesnake"
INDEX 00 09:24:35
INDEX 01 09:25:65
TRACK 04 AUDIO
TITLE "Medicine Man"
PERFORMER "Whitesnake"
INDEX 00 14:07:40
INDEX 01 14:08:15
TRACK 05 AUDIO
TITLE "You 'N' Me"
PERFORMER "Whitesnake"
INDEX 00 18:10:25
INDEX 01 18:12:10
TRACK 06 AUDIO
TITLE "Mean Business"
PERFORMER "Whitesnake"
INDEX 00 21:41:67
INDEX 01 21:43:65
TRACK 07 AUDIO
TITLE "Love Hunter"
PERFORMER "Whitesnake"
INDEX 00 25:31:62
INDEX 01 25:33:17
TRACK 08 AUDIO
TITLE "Outlaw"
PERFORMER "Whitesnake"
INDEX 00 31:11:05
INDEX 01 31:12:22
TRACK 09 AUDIO
TITLE "Rock 'N' Roll Women"
PERFORMER "Whitesnake"
INDEX 00 35:16:37
INDEX 01 35:17:35
TRACK 10 AUDIO
TITLE "We Wish You Well"
PERFORMER "Whitesnake"
INDEX 00 40:04:20
INDEX 01 40:04:62


"Лог"
Exact Audio Copy V0.99 prebeta 5 from 4. May 2009

Отчёт EAC об извлечении, выполненном 20. февраля 2010, 23:48

Whitesnake / Lovehunter [P33P-25057]

Дисковод: ASUS DRW-2014S1 Adapter: 0 ID: 0

Режим чтения : Достоверность
Использование точного потока : Да
Отключение кэша аудио : Да
Использование указателей C2 : Нет

Коррекция смещения при чтении : 6
Способность читать области Lead-in и Lead-out : Нет
Заполнение пропущенных сэмплов тишиной : Да
Удаление блоков с тишиной в начале и конце : Нет
При вычислениях CRC использовались нулевые сэмплы : Да
Интерфейс : Установленный внешний ASPI-интерфейс

Выходной формат : Пользовательский кодировщик
Выбранный битрейт : 128 kBit/s
Качество : Высокий
Добавление ID3-тэга : Нет
Утилита сжатия : C:\Program Files\Exact Audio Copy\Flac\flac.exe
Дополнительные параметры : -6 -V -T "artist=%a" -T "title=%t" -T "album=%g" -T "date=%y" -T "tracknumber=%n" -T "genre=%m" -T "comment=EAC 0.99beta5 / FLAC 1.1.0 q6" %s


TOC извлечённого CD

Трек | Старт | Длительность | Начальный сектор | Конечный сектор
---------------------------------------------------------------------
1 | 0:00.00 | 4:58.62 | 0 | 22411
2 | 4:58.62 | 4:27.03 | 22412 | 42439
3 | 9:25.65 | 4:42.25 | 42440 | 63614
4 | 14:08.15 | 4:03.70 | 63615 | 81909
5 | 18:12.10 | 3:31.55 | 81910 | 97789
6 | 21:43.65 | 3:49.27 | 97790 | 114991
7 | 25:33.17 | 5:39.05 | 114992 | 140421
8 | 31:12.22 | 4:05.13 | 140422 | 158809
9 | 35:17.35 | 4:47.27 | 158810 | 180361
10 | 40:04.62 | 1:37.10 | 180362 | 187646


Характеристики диапазона извлечения и сообщения об ошибках

Выбранный диапазон

Имя файла Y:\Музыка\Whitesnake\1979 Lovehunter\Whitesnake - Lovehunter [P33P-25057].wav

Пиковый уровень 86.9 %
Качество диапазона 99.9 %
CRC копии 9D2A4277
Копирование... OK

Ошибок не произошло


AccurateRip: сводка

Трек 1 нет в базе данных
Трек 2 нет в базе данных
Трек 3 нет в базе данных
Трек 4 нет в базе данных
Трек 5 нет в базе данных
Трек 6 нет в базе данных
Трек 7 нет в базе данных
Трек 8 нет в базе данных
Трек 9 нет в базе данных
Трек 10 нет в базе данных

Ни одного трека нет в базе AccurateRip

Конец отчёта


Состав:
David Coverdale: Vocals
Micky Moody: Guitars
Bernie Marsden: Guitars
Jon Lord: Keyboards
Neil Murray: Bass
Dave Dowle: Drums

P33P-25057

_________________
Витасу до Даймонда как Алсу до Руссоса | При переразмещении - спрашивать разрешение!!


Top
 Profile  
 
 
PostPosted: 01 Nov 2010 
Хиппей (support team)
User avatar
Joined: 30 Jul 2007
Posts: 108153
Lоcаtion: Киев (Kyiv, UA)
Age: 45
Name: Andrey
:meloman:

_________________


Top
 Profile E-mail  
 
 
PostPosted: 01 Nov 2010 
Позитивный Южанин
User avatar
Joined: 07 May 2010
Posts: 1620
Lоcаtion: КРЫМ
Age: 43
Name: Алексей
:thanx:

_________________
WATER'EM ALL!


Top
 Profile E-mail  
 
 
PostPosted: 01 Nov 2010 
Gretzky must die
User avatar
Joined: 16 Sep 2010
Posts: 263
Lоcаtion: Московская обл.
Name: Андрей
Круто !


Top
 Profile  
 
Display posts from previous:  Sort by  
Post new topic Reply to topic  [ 4 posts ] 

All times are UTC + 3 hours


Who is online

Users browsing this forum: No registered users and 3 guests


You cannot post new topics in this forum
You cannot reply to topics in this forum
You cannot edit your posts in this forum
You cannot delete your posts in this forum
You cannot post attachments in this forum

Search for:
Яндекс.Метрика
cron
Powered by phpBB © 2000, 2002, 2005, 2007 phpBB Group